<?xml version="1.0" standalone="no"?>
<!DOCTYPE svg PUBLIC "-//W3C//DTD SVG 1.1//EN" "http://www.w3.org/Graphics/SVG/1.1/DTD/svg11.dtd" >
<svg xmlns="http://www.w3.org/2000/svg">
<metadata>
This is a custom SVG font generated by IcoMoon.
<iconset grid="16"></iconset>
</metadata>
<defs>
<font id="moon" horiz-adv-x="512" >
<font-face units-per-em="512" ascent="480" descent="-32" />
<missing-glyph horiz-adv-x="512" />
<glyph unicode="&#xe000;" d="M 512.00,184.777 L 256.00,383.491 L 0.00,184.777 L 0.00,265.796 L 256.00,464.509 L 512.00,265.795 ZM 448.00,192.00 L 448.00,0.00 L 64.00,0.00 L 64.00,192.00 L 256.00,336.00 Z"  />
<glyph unicode="&#xe001;" d="M 512.00,184.778 L 256.00,383.491 L 0.00,184.777 L 0.00,265.796 L 256.00,464.509 L 512.00,265.795 ZM 448.00,192.00 L 448.00,0.00 L 320.00,0.00 L 320.00,128.00 L 192.00,128.00 L 192.00,0.00 L 64.00,0.00 L 64.00,192.00 L 256.00,336.00 Z"  />
<glyph unicode="&#xe002;" d="M 512.00,176.00L 416.00,272.00L 416.00,416.00L 352.00,416.00L 352.00,336.00L 256.00,432.00L0.00,176.00L0.00,160.00L 64.00,160.00L 64.00,0.00L 224.00,0.00L 224.00,96.00L 288.00,96.00L 288.00,0.00L 448.00,0.00L 448.00,160.00L 512.00,160.00 z"  />
<glyph unicode="&#xe003;" d="M 256.00,448.00L0.00,192.00L 64.00,192.00L 256.00,384.00L 448.00,192.00L 512.00,192.00 		zM 96.00,160.00L 96.00,0.00L 224.00,0.00L 224.00,128.00L 288.00,128.00L 288.00,0.00L 416.00,0.00L 416.00,160.00L 256.00,320.00 		z"  />
<glyph unicode="&#xe004;" d="M 256.00,416.00L0.00,192.00l 64.00,0.00 l0.00-160.00 l 128.00,0.00 l0.00,96.00 l 128.00,0.00 l0.00-96.00 l 128.00,0.00 L 448.00,192.00 l 64.00,0.00 L 256.00,416.00z M 240.00,192.00l-48.00,0.00 l0.00,48.00 l 48.00,0.00 L 240.00,192.00 z M 240.00,272.00l-48.00,0.00 l0.00,48.00 l 48.00,0.00 L 240.00,272.00 z M 320.00,192.00l-48.00,0.00 
		l0.00,48.00 l 48.00,0.00 L 320.00,192.00 z M 320.00,272.00l-48.00,0.00 l0.00,48.00 l 48.00,0.00 L 320.00,272.00 z"  />
<glyph unicode="&#xe005;" d="M 448.00,192.00 L 448.00,0.00 L 64.00,0.00 L 64.00,192.00 L 128.00,192.00 L 128.00,64.00 L 384.00,64.00 L 384.00,192.00 ZM 512.00,184.777 L 256.00,383.491 L 0.00,184.777 L 0.00,265.796 L 256.00,464.509 L 512.00,265.795 Z"  />
<glyph unicode="&#xe006;" d="M 256.00,448.00L0.00,192.00l 48.00-48.00l 48.00,48.00l 32.00-192.00l 128.00,0.00 l 128.00,0.00 l 32.00,192.00l 48.00-48.00l 48.00,48.00L 256.00,448.00z M 256.00,242.746c-24.994,0.00-45.256,20.26-45.256,45.254
		s 20.262,45.255, 45.256,45.255c 24.992,0.00, 45.255-20.262, 45.255-45.255C 301.255,263.006, 280.992,242.746, 256.00,242.746z"  />
<glyph unicode="&#xe007;" d="M 256.00,448.00L0.00,192.00l 48.00-48.00l 48.00,48.00l 32.00-192.00l 96.00,0.00 l0.00,96.00 l 64.00,0.00 l0.00-96.00 l 96.00,0.00 l 32.00,192.00l 48.00-48.00l 48.00,48.00L 256.00,448.00z M 256.00,242.746
		c-24.994,0.00-45.256,20.26-45.256,45.254s 20.262,45.255, 45.256,45.255c 24.992,0.00, 45.255-20.262, 45.255-45.255
		C 301.255,263.006, 280.992,242.746, 256.00,242.746z"  />
<glyph unicode="&#xe008;" d="M 256.00,480.00L0.00,288.00l0.00-96.00 l 64.00,48.00l0.00-240.00 c0.00-17.60, 14.40-32.00, 32.00-32.00l 320.00,0.00 c 17.60,0.00, 32.00,14.40, 32.00,32.00L 448.00,240.00 l 64.00-48.00l0.00,96.00 L 256.00,480.00z M 416.00,0.058
	c-0.017-0.02-0.038-0.041-0.058-0.058L 320.00,0.00 L 320.00,160.00 L 192.00,160.00 l0.00-160.00 L 96.058,0.00 c-0.02,0.017-0.041,0.038-0.058,0.058L 96.00,264.00 L 256.00,384.00l 160.00-120.00L 416.00,0.058 z"  />
<glyph unicode="&#xe009;" d="M 256.00,480.00L0.00,288.00l0.00-96.00 l 64.00,48.00l0.00-240.00 c0.00-17.60, 14.399-32.00, 32.00-32.00l 320.00,0.00 c 17.60,0.00, 32.00,14.40, 32.00,32.00L 448.00,240.00 l 64.00-48.00l0.00,96.00 L 256.00,480.00z M 416.00,0.058
		c-0.018-0.02-0.038-0.041-0.059-0.058L 256.00,0.00 L 256.00,160.00 l-96.00,0.00 l0.00-160.00 L 96.058,0.00 c-0.02,0.017-0.041,0.038-0.058,0.058L 96.00,264.00 L 256.00,384.00l 160.00-120.00L 416.00,0.058 zM 288.00,256.00L 352.00,256.00L 352.00,192.00L 288.00,192.00z"  />
<glyph unicode="&#xe00a;" d="M 128.00,416.00L0.00,256.00L 135.00,256.00L 263.00,416.00 	zM0.00,224.00L 128.00,224.00L 128.00,0.00L0.00,0.00zM 320.00,416.00L 160.00,224.00l0.00-224.00 l 128.00,0.00 l0.00,96.00 c0.00,17.674, 14.327,32.00, 32.00,32.00s 32.00-14.326, 32.00-32.00l0.00-96.00 l 128.00,0.00 L 480.00,224.00 L 320.00,416.00z"  />
<glyph unicode="&#xe00b;" d="M0.00-32.00l 256.00,0.00 L 256.00,480.00 L0.00,480.00 L0.00-32.00 z M 160.00,416.00l 64.00,0.00 l0.00-64.00 l-64.00,0.00 L 160.00,416.00 z M 160.00,288.00l 64.00,0.00 l0.00-64.00 l-64.00,0.00 L 160.00,288.00 z M 160.00,160.00l 64.00,0.00 l0.00-64.00 l-64.00,0.00 L 160.00,160.00 z M 32.00,416.00l 64.00,0.00 l0.00-64.00 L 32.00,352.00 L 32.00,416.00 z M 32.00,288.00
			l 64.00,0.00 l0.00-64.00 L 32.00,224.00 L 32.00,288.00 z M 32.00,160.00l 64.00,0.00 l0.00-64.00 L 32.00,96.00 L 32.00,160.00 zM 288.00,320.00L 512.00,320.00L 512.00,288.00L 288.00,288.00zM 288.00-32.00L 352.00-32.00L 352.00,96.00L 448.00,96.00L 448.00-32.00L 512.00-32.00L 512.00,256.00L 288.00,256.00 		z"  />
<glyph unicode="&#xe00c;" d="M 448.00,352.00L 448.00,416.00 L0.00,416.00 l0.00-352.00 c0.00-17.673, 14.327-32.00, 32.00-32.00l 432.00,0.00 c 26.511,0.00, 48.00,21.489, 48.00,48.00L 512.00,352.00 L 448.00,352.00 z M 416.00,64.00L 32.00,64.00 L 32.00,384.00 l 384.00,0.00 L 416.00,64.00 zM 64.00,320.00L 384.00,320.00L 384.00,288.00L 64.00,288.00zM 256.00,256.00L 384.00,256.00L 384.00,224.00L 256.00,224.00zM 256.00,192.00L 384.00,192.00L 384.00,160.00L 256.00,160.00zM 256.00,128.00L 352.00,128.00L 352.00,96.00L 256.00,96.00zM 64.00,256.00L 224.00,256.00L 224.00,96.00L 64.00,96.00z"  />
<glyph unicode="&#xe00d;" d="M 432.00,480.00 C 476.182,480.00 512.00,444.183 512.00,400.00 C 512.00,381.99 506.045,365.371 496.00,352.00 L 464.00,320.00 L 352.00,432.00 L 384.00,464.00 C 397.371,474.045 413.989,480.00 432.00,480.00 ZM 32.00,112.00L0.00-32.00l 144.00,32.00l 296.00,296.00L 328.00,408.00L 32.00,112.00z M 357.789,298.211l-224.00-224.00l-27.578,27.578l 224.00,224.00L 357.789,298.211z"  />
<glyph unicode="&#xe00e;" d="M 397.042,365.044C 356.341,405.57, 338.388,453.772, 356.943,472.707c 18.556,18.935, 66.592,1.432, 107.293-39.095
	c 0.23-0.229, 0.459-0.458, 0.688-0.688c 40.701-40.526, 58.654-88.729, 40.099-107.663c-18.555-18.935-66.592-1.431-107.293,39.095
	C 397.50,364.585, 397.271,364.814, 397.042,365.044z M 195.896,73.026l 225.637,225.637c 13.607-7.621, 27.189-13.07, 40.16-16.048
	L 224.00,44.922L0.00-32.00l 76.922,224.00l 237.69,237.691c 1.169-5.179, 2.738-10.47, 4.718-15.841c 2.948-8.001, 6.768-16.154, 11.348-24.302
	l-225.65-225.653l 26.869-26.869l 220.66,220.661c 5.448-6.685, 11.333-13.223, 17.62-19.511c 6.339-6.339, 12.858-12.233, 19.485-17.645
	L 169.027,99.895L 195.896,73.026z"  />
<glyph unicode="&#xe00f;" d="M 192.00,160.00l 64.00,32.00L 480.00,416.00l-32.00,32.00L 224.00,224.00L 192.00,160.00z M 144.65,46.451c-15.816,33.364-32.833,50.381-66.198,66.197L 128.00,249.044
	L 192.00,288.00L 384.00,480.00l-96.00,0.00 L 96.00,288.00L0.00-32.00l 320.00,96.00l 192.00,192.00l0.00,96.00 L 320.00,160.00l-38.956-64.00"  />
<glyph unicode="&#xe010;" d="M 224.00,128.00 L 224.00,64.00 L 190.40,49.601 L 81.60,158.40 L 96.00,192.00 L 160.00,192.00 L 160.00,128.00 ZM 67.20,124.80 L 156.80,35.20 L 0.00-32.00 ZM 512.00,336.00 L 272.00,96.00 L 256.00,96.00 L 256.00,128.00 L 464.00,336.00 L 440.00,360.00 L 240.00,160.00 L 192.00,160.00 L 192.00,208.00 L 392.00,408.00 L 368.00,432.00 L 160.00,224.00 L 128.00,224.00 L 128.00,240.00 L 368.00,480.00 Z"  />
<glyph unicode="&#xe011;" d="M 424.00,312.00 L 208.00,96.00 L 128.00,96.00 L 128.00,176.00 L 344.00,392.00 ZM 451.00,339.00 L 371.00,419.00 L 399.029,447.029 C 408.363,456.363 423.636,456.363 432.97,447.029 L 479.029,400.97 C 488.363,391.636 488.363,376.363 479.029,367.029 L 451.00,339.00 ZM 384.00,198.209L 384.00,32.00 L 64.00,32.00 L 64.00,352.00 l 176.00,0.00 l 64.00,64.00L 48.00,416.00 C 21.60,416.00,0.00,394.40,0.00,368.00l0.00-352.00 c0.00-26.40, 21.60-48.00, 48.00-48.00l 352.00,0.00 c 26.40,0.00, 48.00,21.60, 48.00,48.00L 448.00,255.681 
	L 384.00,198.209z"  />
<glyph unicode="&#xe012;" d="M 320.00,416.00L 64.00,160.00L0.00-32.00L 192.00,32.00L 448.00,288.00 	zM 512.00,389.49C 512.00,439.478, 471.478,480.00, 421.49,480.00c-27.789,0.00-52.648-12.528-69.251-32.239L 352.00,448.00l 127.761-127.761
		C 499.473,336.842, 512.00,361.701, 512.00,389.49zM 224.00,0.00L 512.00,0.00L 512.00-32.00L 224.00-32.00z"  />
<glyph unicode="&#xe013;" d="M0.00-32.00C 64.00,160.00, 231.50,480.00, 512.00,480.00C 380.50,374.50, 320.00,128.00, 224.00,128.00s-96.00,0.00-96.00,0.00L 32.00-32.00L0.00-32.00 z"  />
<glyph unicode="&#xe014;" d="M0.00-32.00l 32.00,0.00 l 96.00,160.00c0.00,0.00,0.00,0.00, 96.00,0.00S 380.50,374.50, 512.00,480.00C 231.50,480.00, 64.00,160.00,0.00-32.00z M 196.00,192.00l-36.00,0.00 c0.00,0.00, 88.50,160.00, 224.00,224.00
	C 384.00,416.00, 262.50,308.50, 196.00,192.00z"  />
<glyph unicode="&#xe015;" d="M 192.00,186.667c0.00,0.00, 101.972,61.18, 159.383,37.013c 11.901,18.134, 23.624,37.668, 35.101,57.611
	C 330.321,295.051, 256.00,282.667, 256.00,282.667s 95.106,57.061, 153.333,39.20c 11.675,21.054, 23.027,41.821, 33.978,61.152
	C 396.923,386.153, 352.00,378.667, 352.00,378.667s 59.574,35.744, 113.289,41.799C 482.188,447.896, 497.874,469.406, 512.00,480.00C 231.50,480.00, 64.00,160.00,0.00-32.00
	l 32.00,0.00 l 96.00,160.00c0.00,0.00, 32.00-32.00, 128.00,0.00c 22.737,7.579, 45.474,28.626, 67.786,56.967C 267.478,199.244, 192.00,186.667, 192.00,186.667z"  />
<glyph unicode="&#xe016;" d="M 464.001,287.997L 320.003,431.996L 368.002,479.996L 512.001,335.997zM 304.00,384.00 L 416.00,272.00 L 352.00,96.00 L 64.00-32.00 L 43.313-11.313 L 215.716,161.089 C 218.359,160.382 221.134,160.00 224.00,160.00 C 241.673,160.00 256.00,174.327 256.00,192.00 C 256.00,209.673 241.673,224.00 224.00,224.00 C 206.327,224.00 192.00,209.673 192.00,192.00 C 192.00,189.135 192.382,186.359 193.089,183.715 L 20.687,11.313 L 0.00,32.00 L 128.00,320.00 L 304.00,384.00 Z"  />
<glyph unicode="&#xe017;" d="M 480.002,335.997L 368.003,447.996L 400.003,479.996L 512.002,367.997zM 448.00,304.00 L 432.00,128.00 C 288.00,128.00 80.00-32.00 80.00-32.00 L 53.435-5.435 L 190.267,131.397 C 195.754,129.213 201.734,128.00 208.00,128.00 C 234.51,128.00 256.00,149.49 256.00,176.00 C 256.00,202.51 234.51,224.00 208.00,224.00 C 181.49,224.00 160.00,202.51 160.00,176.00 C 160.00,169.734 161.213,163.755 163.397,158.267 L 26.565,21.435 L 0.00,48.00 C 0.00,48.00 160.00,256.00 160.00,400.00 L 336.00,416.00 L 448.00,304.00 Z"  />
<glyph unicode="&#xe018;" d="M 320.00,416.00L 336.00,480.00L 144.00,480.00L 160.00,416.00 		zM 320.00,384.00L 160.00,384.00 L 80.00,224.00l 128.00-256.00l 16.00,0.00 L 224.00,192.00 c-17.60,0.00-32.00,14.40-32.00,32.00l0.00,32.00 c0.00,17.60, 14.40,32.00, 32.00,32.00l 32.00,0.00 c 17.60,0.00, 32.00-14.40, 32.00-32.00l0.00-32.00 
			c0.00-17.60-14.40-32.00-32.00-32.00l0.00-224.00 l 16.00,0.00 l 128.00,256.00L 320.00,384.00z"  />
<glyph unicode="&#xe019;" d="M 325.926,401.778L 352.00,480.00L 128.00,480.00 l 26.074-78.222L 80.00,224.00l 128.00-256.00l 64.00,0.00 l 128.00,256.00L 325.926,401.778z M 307.603,448.00l-10.667-32.00L 183.064,416.00 
	l-10.667,32.00L 307.603,448.00 z M 256.00,7.555L 256.00,194.742 c 18.641,6.591, 32.00,24.359, 32.00,45.258c0.00,26.51-21.49,48.00-48.00,48.00s-48.00-21.49-48.00-48.00
	c0.00-20.898, 13.359-38.667, 32.00-45.258l0.00-187.188 L 115.171,225.211L 181.333,384.00l 117.333,0.00 l 66.161-158.789L 256.00,7.555z"  />
<glyph unicode="&#xe01a;" d="M 258.027,349.974c-21.205-20.571-56.098-55.135-63.634-62.679C 135.58,228.488-2.507,64.675, 0.036-31.965
			c 96.64-2.551, 260.449,135.547, 319.263,194.354c 7.544,7.545, 42.108,42.441, 62.673,63.64L 258.027,349.974zM 472.339,377.91l-9.023,9.007L 512.00,427.139L 459.14,480.00l-40.222-48.686l-9.018,9.039
			c-27.895,1.631-72.881-25.375-117.215-61.04l 118.63-118.63c 13.414,16.688, 25.524,33.433, 35.421,49.356
			c 9.648-36.481-5.979-102.913-117.835-190.941l 14.233-14.232C 448.00,180.292, 498.531,268.983, 466.263,348.23
			C 470.452,359.309, 472.834,369.462, 472.339,377.91z"  />
<glyph unicode="&#xe01b;" d="M 469.486,437.486C 443.517,463.456, 413.958,480.00, 385.073,480.00c-19.763,0.00-39.211-7.745-56.979-25.514L 80.223,208.224L0.00,0.00l 32.00-32.00
	l 208.223,80.225l 18.04,18.157l 228.224,229.713C 530.225,339.833, 513.225,393.748, 469.486,437.486z M 240.149,93.553L 125.551,208.15
	L 327.355,408.644l 113.288-113.288L 240.149,93.553z"  />
<glyph unicode="&#xe01c;" d="M 256.00,464.00L0.00,208.00l 48.00-48.00l 48.00,48.00l0.00-240.00 l 128.00,0.00 l0.00,32.00 l0.00,64.00 l 64.00,0.00 l0.00-96.00 l 128.00,0.00 L 416.00,208.00 l 48.00-48.00l 48.00,48.00L 256.00,464.00z M 132.00,0.00l-4.00,0.00 L 128.00,240.00 l 4.00,4.00L 132.00,0.00 z M 148.00,0.00l-8.00,0.00 L 140.00,252.00 
	l 8.00,8.00L 148.00,0.00 z M 164.00,0.00l-8.00,0.00 L 156.00,268.00 l 8.00,8.00L 164.00,0.00 z M 180.00,0.00l-8.00,0.00 L 172.00,284.00 l 8.00,8.00L 180.00,0.00 z M 196.00,96.00l-4.00,0.00 l0.00-32.00 l0.00-64.00 l-4.00,0.00 L 188.00,300.00 l 8.00,8.00L 196.00,96.00 z M 212.00,96.00l-8.00,0.00 L 204.00,316.00 l 8.00,8.00L 212.00,96.00 z M 228.00,96.00
	l-8.00,0.00 L 220.00,332.00 l 8.00,8.00L 228.00,96.00 z M 244.00,96.00l-8.00,0.00 L 236.00,348.00 l 8.00,8.00L 244.00,96.00 z M 260.00,96.00l-8.00,0.00 L 252.00,364.00 l 4.00,4.00l 4.00-4.00L 260.00,96.00 z M 276.00,96.00l-8.00,0.00 L 268.00,356.00 l 8.00-8.00L 276.00,96.00 z M 292.00,96.00l-8.00,0.00 L 284.00,340.00 l 8.00-8.00L 292.00,96.00 z
	 M 308.00,96.00l-8.00,0.00 L 300.00,324.00 l 8.00-8.00L 308.00,96.00 z M 324.00,0.00l-4.00,0.00 l0.00,64.00 l0.00,32.00 l-4.00,0.00 L 316.00,308.00 l 8.00-8.00L 324.00,0.00 z M 340.00,0.00l-8.00,0.00 L 332.00,292.00 l 8.00-8.00L 340.00,0.00 z M 356.00,0.00l-8.00,0.00 L 348.00,276.00 l 8.00-8.00L 356.00,0.00 z M 372.00,0.00l-8.00,0.00 L 364.00,260.00 
	l 8.00-8.00L 372.00,0.00 z M 384.00,0.00l-4.00,0.00 L 380.00,244.00 l 4.00-4.00L 384.00,0.00 z"  />
<glyph unicode="&#xe01d;" d="M 228.00-12.00L 512.00-12.00L 512.00-4.00L 236.00-4.00 	zM 244.00,4.00L 512.00,4.00L 512.00,12.00L 252.00,12.00 	zM 212.00-28.00L 512.00-28.00L 512.00-20.00L 220.00-20.00 	zM 292.00,52.00L 512.00,52.00L 512.00,60.00L 300.00,60.00 	zM 276.00,36.00L 512.00,36.00L 512.00,44.00L 284.00,44.00 	zM 260.00,20.00L 512.00,20.00L 512.00,28.00L 268.00,28.00 	zM 469.486,437.486C 443.517,463.456, 413.958,480.00, 385.073,480.00c-19.764,0.00-39.211-7.745-56.979-25.514L 80.223,208.225L0.00,0.00l 32.00-32.00
	l 208.223,80.225l 18.041,18.157l 228.224,229.713C 530.225,339.833, 513.225,393.748, 469.486,437.486z M 240.149,93.553L 125.551,208.15
	L 327.355,408.644l 113.287-113.288L 240.149,93.553z"  />
<glyph unicode="&#xe01e;" d="M 192.00,384.00 C 315.712,384.00 416.00,283.711 416.00,160.00 L 368.00,160.00 C 368.00,207.012 349.693,251.209 316.451,284.451 C 283.209,317.693 239.011,336.00 192.00,336.00 L 192.00,384.00 ZM 192.00,480.00 C 368.73,480.00 512.00,336.73 512.00,160.00 L 464.00,160.00 C 464.00,196.74 456.815,232.357 442.645,265.859 C 428.947,298.243 409.328,327.337 384.333,352.333 C 359.337,377.329 330.243,396.948 297.859,410.645 C 264.357,424.815 228.741,432.00 192.00,432.00 L 192.00,480.00 ZM 287.195,255.196 C 309.074,233.318 319.993,204.643 319.98,175.971 C 288.00,127.973 288.00,64.00 288.00,64.00 C 160.00,64.00 64.00-32.00 64.00-32.00 L 57.00-25.00 L 45.435-13.435 L 187.226,128.356 C 188.784,128.123 190.377,128.00 192.00,128.00 C 209.673,128.00 224.00,142.327 224.00,160.00 C 224.00,177.673 209.673,192.00 192.00,192.00 C 174.327,192.00 160.00,177.673 160.00,160.00 C 160.00,158.377 160.123,156.783 160.356,155.226 L 18.565,13.435 L 0.00,32.00 C 0.00,32.00 96.00,128.00 96.00,256.00 C 96.00,256.00 159.999,256.00 207.999,288.00 C 236.663,288.00 265.326,277.065 287.195,255.196 Z"  />
<glyph unicode="&#xe01f;" d="M 192.00,384.00l0.00-48.00 c 47.011,0.00, 91.209-18.307, 124.451-51.549S 368.00,207.012, 368.00,160.00l 48.00,0.00 C 416.00,283.711, 315.712,384.00, 192.00,384.00zM 192.00,480.00l0.00-48.00 c 36.741,0.00, 72.357-7.185, 105.859-21.355c 32.384-13.697, 61.478-33.316, 86.474-58.312
			c 24.995-24.996, 44.614-54.09, 58.312-86.474C 456.815,232.357, 464.00,196.74, 464.00,160.00l 48.00,0.00 C 512.00,336.73, 368.73,480.00, 192.00,480.00zM 178.745,237.255L 44.18,102.689l 90.51-90.51l 134.565,134.565c 24.993,24.993, 24.994,65.516,0.00,90.51
			C 244.261,262.249, 203.738,262.248, 178.745,237.255zM0.00-32.00L 106.806-13.675L 18.325,74.806 		z"  />
<glyph unicode="&#xe020;" d="M 160.061,160.00C 96.036,160.00, 117.88,46.86,0.00,21.363c 32.011-21.324, 125.898-39.027, 192.072,10.668
			C 249.298,75.006, 224.085,160.00, 160.061,160.00zM 505.965,441.965c-32.009,32.007-110.472-72.027-171.617-107.603c-60.98-37.464-144.033-112.027-96.021-160.037
			c 48.01-48.013, 122.571,35.04, 160.036,96.022C 433.938,331.495, 537.973,409.958, 505.965,441.965z"  />
<glyph unicode="&#xe021;" d="M 257.54,416.00C 92.994,416.00,0.00,306.648,0.00,226.653c0.00-121.887, 109.354-190.477, 200.308-212.956
	C 291.27-8.791, 325.48,32.462, 324.022,80.00c-1.771,57.75, 27.073,58.496, 47.52,56.459C 391.973,134.408, 512.00,106.695, 512.00,198.674
	C 512.00,312.50, 422.072,416.00, 257.54,416.00z M 224.00,384.00c 17.673,0.00, 32.00-14.327, 32.00-32.00s-14.327-32.00-32.00-32.00s-32.00,14.327-32.00,32.00S 206.327,384.00, 224.00,384.00z
	 M 80.00,191.754c-8.973,0.00-16.246,7.273-16.246,16.246S 71.027,224.246, 80.00,224.246S 96.246,216.973, 96.246,208.00S 88.973,191.754, 80.00,191.754z
	 M 128.00,256.00c-17.673,0.00-32.00,14.327-32.00,32.00s 14.327,32.00, 32.00,32.00s 32.00-14.327, 32.00-32.00S 145.673,256.00, 128.00,256.00z M 256.00,128.00c-35.346,0.00-64.00,21.49-64.00,48.00
	s 28.654,48.00, 64.00,48.00c 35.347,0.00, 64.00-21.49, 64.00-48.00S 291.347,128.00, 256.00,128.00z M 368.00,256.00c-26.51,0.00-48.00,21.49-48.00,48.00s 21.49,48.00, 48.00,48.00s 48.00-21.49, 48.00-48.00
	S 394.51,256.00, 368.00,256.00z"  />
<glyph unicode="&#xe022;" d="M 256.00,416.00C 114.615,416.00,0.00,315.712,0.00,192.00c0.00-82.947, 51.529-155.359, 128.101-194.078c 43.186-21.34, 80.116-5.816, 54.146,30.87
	C 168.359,42.667, 160.00,60.52, 160.00,80.00c0.00,44.183, 42.98,80.00, 96.00,80.00s 96.00-35.817, 96.00-80.00c0.00-19.48-8.359-37.332-22.246-51.207
	c-25.97-36.685, 10.955-52.209, 54.139-30.874C 460.469,36.637, 512.00,109.051, 512.00,192.00C 512.00,315.712, 397.385,416.00, 256.00,416.00z M 64.00,160.00
	c-17.673,0.00-32.00,14.326-32.00,32.00s 14.327,32.00, 32.00,32.00s 32.00-14.326, 32.00-32.00S 81.673,160.00, 64.00,160.00z M 128.00,260.287
	c-22.958-13.255-48.732-11.593-57.569,3.713c-8.836,15.306, 2.611,38.458, 25.569,51.713s 48.732,11.593, 57.569-3.713
	C 162.406,296.694, 150.958,273.542, 128.00,260.287z M 256.00,288.00c-35.346,0.00-64.00,21.49-64.00,48.00s 28.654,48.00, 64.00,48.00c 35.347,0.00, 64.00-21.49, 64.00-48.00
	S 291.347,288.00, 256.00,288.00z M 384.00,260.287c-22.958,13.255-34.406,36.407-25.569,51.713s 34.611,16.968, 57.569,3.713
	s 34.406-36.407, 25.569-51.713S 406.958,247.032, 384.00,260.287z M 448.00,160.00c-17.673,0.00-32.00,14.326-32.00,32.00s 14.327,32.00, 32.00,32.00s 32.00-14.326, 32.00-32.00
	S 465.673,160.00, 448.00,160.00z"  />
<glyph unicode="&#xe023;" d="M 490.927,458.928 C 561.337,388.518 435.214,345.562 405.506,315.859 C 400.001,310.351 394.697,305.051 389.718,300.068 L 420.037,269.751 C 426.232,263.555 426.232,253.417 420.037,247.222 L 389.762,216.945 C 383.567,210.752 373.428,210.752 367.234,216.945 L 337.07,247.11 L 148.485,58.527 C 116.196,26.234 54.276-1.961 24.237-32.00 C 15.225-22.988 12.12-19.882 12.12-19.882 C 12.12-19.882 9.012-16.776 0.00-7.763 C 30.039,22.278 58.235,84.195 90.527,116.489 L 279.115,305.073 L 248.953,335.237 C 242.756,341.432 242.756,351.569 248.953,357.764 L 279.226,388.041 C 285.424,394.238 295.562,394.238 301.756,388.041 L 332.074,357.723 C 337.054,362.705 342.355,368.003 347.862,373.512 C 377.566,403.214 420.519,529.336 490.927,458.928 Z M 133.82,73.193 L 325.621,265.001 L 296.997,293.626 L 105.194,101.819 C 90.361,86.987 75.489,63.665 61.103,41.104 L 61.037,41.001 C 53.163,28.656 45.563,16.739 37.845,5.846 C 48.772,13.59 60.723,21.211 73.102,29.104 C 95.66,43.488 118.986,58.361 133.82,73.193 Z"  />
<glyph unicode="&#xe024;" d="M 384.00,320.00l-56.00,0.00 c-32.00,0.00-8.00,32.00-8.00,96.00c0.00,7.555-0.90,13.307-2.474,17.61C 309.875,460.389, 285.236,480.00, 256.00,480.00
	c-29.235,0.00-53.875-19.611-61.526-46.39C 192.901,429.307, 192.00,423.555, 192.00,416.00c0.00-64.00, 24.00-96.00-8.00-96.00l-56.00,0.00 l0.00-64.00 l 64.00,0.00 l0.00-248.00 c0.00-4.40, 3.60-8.00, 8.00-8.00l 16.00,0.00 
	c 4.40,0.00, 8.00-3.60, 8.00-8.00l0.00-16.00 c0.00-4.40, 3.60-8.00, 8.00-8.00l 48.00,0.00 c 4.40,0.00, 8.00,3.60, 8.00,8.00l0.00,16.00 c0.00,4.40, 3.60,8.00, 8.00,8.00l 16.00,0.00 c 4.40,0.00, 8.00,3.60, 8.00,8.00L 320.00,256.00 l 64.00,0.00 L 384.00,320.00 z M 288.00,31.196
	c-15.649-3.189-28.007-15.547-31.196-31.196l-1.607,0.00 c-3.19,15.649-15.547,28.007-31.196,31.196L 224.001,256.00 l 64.00,0.00 L 288.001,31.196 z"  />
<glyph unicode="&#xe025;" d="M 447.97,163.249c-0.006,0.353-0.015,0.701-0.021,1.053c-0.016,0.714-0.035,1.427-0.059,2.14C 442.875,324.266, 256.00,480.00, 256.00,480.00
		S 69.123,324.266, 64.11,166.439c-0.022-0.715-0.044-1.426-0.06-2.141c-0.007-0.352-0.015-0.701-0.021-1.053
		c-0.018-1.08-0.028-2.162-0.028-3.248c0.00-1.184, 0.014-2.361, 0.035-3.539c 0.002-0.098, 0.003-0.195, 0.007-0.293
		C 66.082,51.899, 151.241-32.00, 256.00-32.00c 104.758,0.00, 189.916,83.899, 191.959,188.168c 0.002,0.098, 0.004,0.196, 0.005,0.293
		c 0.021,1.178, 0.036,2.357, 0.036,3.539C 448.00,161.086, 447.988,162.168, 447.97,163.249z M 383.975,157.63l-0.004-0.203
		c-0.659-33.643-14.266-65.167-38.313-88.774C 321.587,45.017, 289.743,32.00, 256.00,32.00c-6.231,0.00-12.397,0.447-18.462,1.319
		c 69.528,41.423, 116.108,117.352, 116.108,204.161c0.00,9.728-0.59,19.317-1.726,28.74c 20.136-36.97, 31.032-71.40, 32.001-101.813
		l 0.002-0.072c 0.016-0.474, 0.026-0.946, 0.039-1.422l 0.014-0.724C 383.99,161.461, 384.00,160.73, 384.00,160.00
		C 384.00,159.208, 383.99,158.419, 383.975,157.63z"  />
<glyph unicode="&#xe026;" d="M 120.037,164.644 C 120.033,164.73 120.032,164.814 120.031,164.901 C 120.013,165.932 120.00,166.961 120.00,167.997 C 120.00,168.948 120.009,169.894 120.024,170.839 C 120.03,171.149 120.037,171.452 120.043,171.761 C 120.058,172.387 120.076,173.01 120.096,173.635 C 124.481,311.733 287.999,448.00 287.999,448.00 C 287.999,448.00 325.697,416.582 365.377,368.632 L 124.79,128.046 C 121.921,139.81 120.283,152.056 120.037,164.644 ZM 455.954,171.765c-0.015,0.624-0.029,1.247-0.051,1.872c-1.545,48.613-22.809,96.999-49.718,139.293L 510.628,417.373L 486.00,442.00
		L 38.00-6.00l 24.627-24.628l 93.961,93.962C 187.37,24.737, 234.793,0.00, 287.999,0.00c 91.664,0.00, 166.176,73.411, 167.965,164.646
		c 0.002,0.086, 0.003,0.173, 0.003,0.257c 0.021,1.03, 0.033,2.063, 0.033,3.097c0.00,0.95-0.011,1.896-0.027,2.843
		C 455.967,171.151, 455.96,171.456, 455.954,171.765z M 399.979,165.927l-0.004-0.178c-0.576-29.438-12.483-57.022-33.523-77.678
		C 345.388,67.39, 317.524,56.00, 287.999,56.00c-5.451,0.00-10.847,0.391-16.154,1.155c 60.839,36.244, 101.596,102.682, 101.596,178.64
		c0.00,8.511-0.518,16.902-1.512,25.147c 17.619-32.349, 27.154-62.475, 28.002-89.086l 0.002-0.062c 0.015-0.415, 0.021-0.829, 0.033-1.244
		l 0.013-0.634c 0.013-0.638, 0.021-1.277, 0.021-1.916C 400.00,167.308, 399.991,166.616, 399.979,165.927z"  />
<glyph unicode="&#xe027;" d="M 256.00,414.672 C 239.761,398.679 218.94,376.741 198.21,350.918 C 143.571,282.861 113.79,218.542 112.087,164.915 C 112.069,164.357 112.052,163.80 112.039,163.238 L 112.031,162.853 L 112.022,162.41 C 112.009,161.607 112.001,160.803 112.001,159.996 C 112.001,159.204 112.01,158.418 112.023,157.631 L 112.024,157.607 L 112.034,157.103 C 112.774,119.259 128.079,83.792 155.129,57.234 C 182.213,30.645 218.037,16.00 256.00,16.00 C 293.963,16.00 329.785,30.645 356.87,57.236 C 383.917,83.79 399.223,119.255 399.968,157.096 L 399.969,157.169 L 399.972,157.335 C 399.988,158.222 400.00,159.11 400.00,160.00 C 400.00,160.811 399.99,161.619 399.977,162.427 L 399.97,162.77 L 399.961,163.237 C 399.949,163.756 399.936,164.273 399.918,164.792 L 399.916,164.855 L 399.914,164.918 C 398.21,218.545 368.429,282.864 313.79,350.92 C 293.059,376.741 272.238,398.679 256.00,414.672 Z M 256.00,480.00 L 256.00,480.00 C 256.00,480.00 442.875,324.266 447.889,166.442 C 447.914,165.729 447.932,165.016 447.949,164.302 C 447.955,163.95 447.964,163.602 447.97,163.249 C 447.988,162.168 448.00,161.086 448.00,160.00 C 448.00,158.818 447.985,157.639 447.964,156.461 C 447.963,156.364 447.961,156.266 447.959,156.168 C 445.916,51.899 360.758-32.00 256.00-32.00 C 151.241-32.00 66.082,51.899 64.043,156.164 C 64.039,156.263 64.038,156.358 64.036,156.457 C 64.015,157.636 64.001,158.811 64.001,159.996 C 64.001,161.082 64.011,162.164 64.029,163.244 C 64.035,163.597 64.043,163.944 64.05,164.297 C 64.066,165.013 64.088,165.724 64.11,166.439 C 69.123,324.266 256.00,480.00 256.00,480.00 ZM 361.981,167.884 C 361.992,167.257 362.00,166.63 362.00,166.00 C 362.00,165.312 361.99,164.623 361.977,163.897 L 361.974,163.731 L 361.973,163.655 C 361.376,134.259 349.473,106.708 328.452,86.07 C 307.387,65.39 279.525,54.00 250.00,54.00 C 226.519,54.00 204.094,61.21 185.299,74.561 C 189.50,74.195 193.736,74.00 198.00,74.00 C 235.963,74.00 271.785,88.645 298.87,115.236 C 325.917,141.79 341.223,177.255 341.968,215.096 L 341.969,215.169 L 341.972,215.335 C 341.988,216.222 342.00,217.11 342.00,218.00 C 342.00,218.811 341.99,219.619 341.977,220.428 L 341.97,220.771 L 341.961,221.238 C 341.949,221.757 341.936,222.274 341.918,222.793 L 341.916,222.856 L 341.914,222.919 C 341.616,232.30 340.439,242.014 338.44,252.012 C 353.169,222.158 361.149,194.465 361.931,169.847 L 361.935,169.745 L 361.936,169.706 C 361.948,169.325 361.958,168.944 361.967,168.562 L 361.975,168.131 L 361.981,167.884 Z"  />
<glyph unicode="&#xe028;" d="M 256.00,391.981 C 242.179,377.786 226.216,360.282 210.327,340.454 C 158.108,275.293 129.666,214.417 128.078,164.407 C 128.061,163.877 128.046,163.386 128.035,162.892 L 128.028,162.574 L 128.019,162.132 C 128.008,161.422 128.001,160.711 128.001,159.997 C 128.001,159.342 128.008,158.69 128.019,158.038 L 128.031,157.417 C 128.689,123.783 142.293,92.258 166.338,68.652 C 190.413,45.017 222.255,32.00 256.00,32.00 C 289.744,32.00 321.587,45.017 345.661,68.652 C 369.697,92.25 383.301,123.756 383.971,157.376 L 383.971,157.40 L 383.975,157.618 C 383.988,158.411 384.00,159.205 384.00,160.00 C 384.00,160.716 383.991,161.43 383.98,162.144 L 383.979,162.184 L 383.978,162.224 L 383.973,162.455 L 383.965,162.902 C 383.954,163.354 383.943,163.805 383.927,164.257 L 383.925,164.333 L 383.922,164.409 C 382.333,214.418 353.892,275.294 301.673,340.454 C 285.783,360.282 269.82,377.785 256.00,391.981 Z M 256.00,480.00 L 256.00,480.00 C 256.00,480.00 442.875,324.266 447.889,166.442 C 447.914,165.729 447.932,165.016 447.949,164.302 C 447.955,163.95 447.964,163.602 447.97,163.249 C 447.988,162.168 448.00,161.086 448.00,160.00 C 448.00,158.818 447.985,157.639 447.964,156.461 C 447.963,156.364 447.961,156.266 447.959,156.168 C 445.916,51.899 360.758-32.00 256.00-32.00 C 151.241-32.00 66.082,51.899 64.043,156.164 C 64.039,156.263 64.038,156.358 64.036,156.457 C 64.015,157.636 64.001,158.811 64.001,159.996 C 64.001,161.082 64.011,162.164 64.029,163.244 C 64.035,163.597 64.043,163.944 64.05,164.297 C 64.066,165.013 64.088,165.724 64.11,166.439 C 69.123,324.266 256.00,480.00 256.00,480.00 Z"  />
<glyph unicode="&#xe029;" d="M 416.00,384.00L 416.00,416.00 c0.00,17.60-14.40,32.00-32.00,32.00L 32.00,448.00 C 14.40,448.00,0.00,433.60,0.00,416.00l0.00-96.00 c0.00-17.60, 14.40-32.00, 32.00-32.00l 352.00,0.00 c 17.60,0.00, 32.00,14.40, 32.00,32.00l0.00,32.00 l 64.00,0.00 l0.00-128.00 L 192.00,224.00 
	l0.00-64.00 l-16.00,0.00 c-8.837,0.00-16.00-7.163-16.00-16.00l0.00-160.00 c0.00-8.837, 7.163-16.00, 16.00-16.00l 64.00,0.00 c 8.837,0.00, 16.00,7.163, 16.00,16.00L 256.00,144.00 c0.00,8.837-7.163,16.00-16.00,16.00l-16.00,0.00 l0.00,32.00 l 288.00,0.00 L 512.00,384.00 
	L 416.00,384.00 z M 35.00,384.00l-3.00,0.00 L 32.00,416.00 l 3.00,0.00 L 35.00,384.00 z M 51.00,384.00l-8.00,0.00 L 43.00,416.00 l 8.00,0.00 L 51.00,384.00 z M 67.00,384.00l-8.00,0.00 L 59.00,416.00 l 8.00,0.00 L 67.00,384.00 z M 83.00,384.00l-8.00,0.00 L 75.00,416.00 l 8.00,0.00 L 83.00,384.00 z M 99.00,384.00l-8.00,0.00 L 91.00,416.00 l 8.00,0.00 L 99.00,384.00 z M 115.00,384.00l-8.00,0.00 L 107.00,416.00 l 8.00,0.00 L 115.00,384.00 z
	 M 131.00,384.00l-8.00,0.00 L 123.00,416.00 l 8.00,0.00 L 131.00,384.00 z M 147.00,384.00l-8.00,0.00 L 139.00,416.00 l 8.00,0.00 L 147.00,384.00 z M 163.00,384.00l-8.00,0.00 L 155.00,416.00 l 8.00,0.00 L 163.00,384.00 z M 179.00,384.00l-8.00,0.00 L 171.00,416.00 l 8.00,0.00 L 179.00,384.00 z M 195.00,384.00l-8.00,0.00 L 187.00,416.00 l 8.00,0.00 L 195.00,384.00 z M 211.00,384.00l-8.00,0.00 L 203.00,416.00 l 8.00,0.00 L 211.00,384.00 z
	 M 227.00,384.00l-8.00,0.00 L 219.00,416.00 l 8.00,0.00 L 227.00,384.00 z M 243.00,384.00l-8.00,0.00 L 235.00,416.00 l 8.00,0.00 L 243.00,384.00 z M 259.00,384.00l-8.00,0.00 L 251.00,416.00 l 8.00,0.00 L 259.00,384.00 z M 275.00,384.00l-8.00,0.00 L 267.00,416.00 l 8.00,0.00 L 275.00,384.00 z M 291.00,384.00l-8.00,0.00 L 283.00,416.00 l 8.00,0.00 L 291.00,384.00 z M 307.00,384.00l-8.00,0.00 L 299.00,416.00 l 8.00,0.00 L 307.00,384.00 z
	 M 323.00,384.00l-8.00,0.00 L 315.00,416.00 l 8.00,0.00 L 323.00,384.00 z M 339.00,384.00l-8.00,0.00 L 331.00,416.00 l 8.00,0.00 L 339.00,384.00 z M 355.00,384.00l-8.00,0.00 L 347.00,416.00 l 8.00,0.00 L 355.00,384.00 z M 371.00,384.00l-8.00,0.00 L 363.00,416.00 l 8.00,0.00 L 371.00,384.00 z M 384.00,384.00l-5.00,0.00 L 379.00,416.00 l 5.00,0.00 L 384.00,384.00 z"  />
<glyph unicode="&#xe02a;" d="M 512.00,192.00L 512.00,384.00 l-96.00,0.00 L 416.00,416.00 c0.00,17.60-14.40,32.00-32.00,32.00L 32.00,448.00 C 14.40,448.00,0.00,433.60,0.00,416.00l0.00-96.00 c0.00-17.60, 14.40-32.00, 32.00-32.00l 352.00,0.00 c 17.60,0.00, 32.00,14.40, 32.00,32.00l0.00,32.00 l 64.00,0.00 
	l0.00-128.00 L 192.00,224.00 l0.00-64.00 l-16.00,0.00 c-8.837,0.00-16.00-7.163-16.00-16.00l0.00-160.00 c0.00-8.837, 7.163-16.00, 16.00-16.00l 64.00,0.00 c 8.837,0.00, 16.00,7.163, 16.00,16.00L 256.00,144.00 c0.00,8.837-7.163,16.00-16.00,16.00l-16.00,0.00 l0.00,32.00 
	L 512.00,192.00 z M 384.00,384.00L 32.00,384.00 L 32.00,416.00 l 352.00,0.00 L 384.00,384.00 z"  />
<glyph unicode="&#xe02b;" d="M 448.00,384.00 L 64.00,384.00 L 64.00,64.00 L 448.00,64.00 L 448.00,384.00 Z M 512.00,448.00 L 512.00,448.00 L 512.00,0.00 L 0.00,0.00 L 0.00,448.00 L 512.00,448.00 ZM 416.00,96.00 L 96.00,96.00 L 96.00,160.00 L 192.00,320.00 L 323.50,160.00 L 416.00,224.00 L 416.00,192.00 ZM 320.00,304.00A48.00,48.00 2700.00 1 0 416.00,304A48.00,48.00 2700.00 1 0 320.00,304z"  />
<glyph unicode="&#xe02c;" d="M0.00,416.00l0.00-416.00 l 512.00,0.00 L 512.00,416.00 L0.00,416.00 z M 480.00,32.00L 32.00,32.00 L 32.00,384.00 l 448.00,0.00 L 480.00,32.00 zM 352.00,304.00A48.00,48.00 2700.00 1 0 448.00,304A48.00,48.00 2700.00 1 0 352.00,304zM 448.00,64.00 L 64.00,64.00 L 160.00,320.00 L 288.00,160.00 L 352.00,208.00 Z"  />
<glyph unicode="&#xe02d;" d="M0.00,416.00l0.00-384.00 l 512.00,0.00 L 512.00,416.00 L0.00,416.00 z M 480.00,64.00l-32.00,0.00 l-96.00,144.00l-64.00-48.00L 160.00,320.00L 64.00,64.00L 32.00,64.00 L 32.00,384.00 l 448.00,0.00 L 480.00,64.00 zM 352.00,304.00A48.00,48.00 12780.00 1 0 448.00,304A48.00,48.00 12780.00 1 0 352.00,304z"  />
<glyph unicode="&#xe02e;" d="M 64.00,352.00l0.00-320.00 l 448.00,0.00 L 512.00,352.00 L 64.00,352.00 z M 480.00,85.333L 416.00,192.00l-72.533-60.444L 288.00,224.00L 96.00,64.00L 96.00,320.00 l 384.00,0.00 L 480.00,85.333 zM 128.00,240.00A48.00,48.00 7740.00 1 0 224.00,240A48.00,48.00 7740.00 1 0 128.00,240zM 448.00,416.00L0.00,416.00L0.00,96.00L 32.00,96.00L 32.00,384.00L 448.00,384.00 	z"  />
<glyph unicode="&#xe02f;" d="M 416.00,192.113c-32.00,0.00-64.00-32.113-96.00-32.113s-32.00,128.00-96.00,128.00S 96.00,224.00, 64.00,96.00c0.00,0.00, 352.00,0.00, 384.00,0.00
		C 448.00,95.999, 448.00,192.113, 416.00,192.113zM0.00,384.00l0.00-352.00 l 512.00,0.00 L 512.00,384.00 L0.00,384.00 z M 480.00,64.00L 32.00,64.00 L 32.00,352.00 l 448.00,0.00 L 480.00,64.00 zM 352.00,272.00A48.00,48.00 12780.00 1 0 448.00,272A48.00,48.00 12780.00 1 0 352.00,272z"  />
<glyph unicode="&#xe030;" d="M0.00,384.00l0.00-320.00 l 512.00,0.00 L 512.00,384.00 L0.00,384.00 z M 480.00,160.00l-96.00,96.00l-45.898-68.847L 429.255,96.00L 384.00,96.00 L 224.00,256.00L 32.00,96.00L 32.00,352.00 l 448.00,0.00 L 480.00,160.00 zM 64.00,272.00A48.00,48.00 10980.00 1 0 160.00,272A48.00,48.00 10980.00 1 0 64.00,272z"  />
<glyph unicode="&#xe031;" d="M0.00,448.00l0.00-480.00 l 512.00,0.00 L 512.00,448.00 L0.00,448.00 z M 448.00,96.00L 64.00,96.00 L 64.00,384.00 l 384.00,0.00 L 448.00,96.00 zM 416.00,192.00L 384.00,256.00L 320.00,192.00L 224.00,352.00L 96.00,160.00L 96.00,128.00L 416.00,128.00 	z"  />
<glyph unicode="&#xe032;" d="M 384.00,448.00L0.00,448.00 l0.00-384.00 l 384.00,0.00 L 384.00,448.00 z M 352.00,160.00L 32.00,160.00 L 32.00,416.00 l 320.00,0.00 L 352.00,160.00 zM 256.00,320.00L 233.143,274.286L 160.00,384.00L 64.00,192.00L 320.00,192.00 	zM 416.00,356.623L 416.00,32.00L 60.472,32.00L 57.964,8.139L 439.861-32.00L 480.00,349.896 	z"  />
<glyph unicode="&#xe033;" d="M0.00,448.00l0.00-448.00 l 512.00,0.00 L 512.00,448.00 L0.00,448.00 z M 480.00,416.00l0.00-325.154 L 354.059,237.778c-8.806,10.272-21.219,16.164-34.059,16.164
		s-25.253-5.892-34.059-16.164L 136.99,64.00L 43.529,64.00 l 72.914,91.143c 3.271,4.09, 7.376,6.342, 11.557,6.342s 8.286-2.252, 11.557-6.342
		l 15.867-19.834l 18.295,21.954l-12.297,15.372c-8.567,10.708-20.749,16.85-33.421,16.85s-24.854-6.142-33.421-16.85L 32.00,94.411L 32.00,416.00 
		L 480.00,416.00 z M 466.132,64.00L 173.868,64.00 l 133.333,155.556c 3.529,4.118, 8.075,6.386, 12.799,6.386s 9.27-2.268, 12.799-6.386L 466.132,64.00zM 144.00,356.00c 28.673,0.00, 52.00-23.327, 52.00-52.00s-23.327-52.00-52.00-52.00s-52.00,23.327-52.00,52.00S 115.327,356.00, 144.00,356.00 M 144.00,384.00
		c-44.183,0.00-80.00-35.817-80.00-80.00s 35.817-80.00, 80.00-80.00s 80.00,35.817, 80.00,80.00S 188.183,384.00, 144.00,384.00L 144.00,384.00z"  />
<glyph unicode="&#xe034;" d="M 256.00,264.00 C 302.869,264.00 341.00,224.523 341.00,176.00 C 341.00,127.477 302.869,88.00 256.00,88.00 C 209.131,88.00 171.00,127.477 171.00,176.00 C 171.00,224.523 209.131,264.00 256.00,264.00 ZM 480.00,384.00l-96.00,0.00 l-16.179,40.717C 364.619,437.522, 351.20,448.00, 338.00,448.00L 174.00,448.00 c-13.20,0.00-26.619-10.478-29.821-23.283L 128.00,384.00L 32.00,384.00 
		c-17.60,0.00-32.00-14.40-32.00-32.00l0.00-352.00 c0.00-17.60, 14.40-32.00, 32.00-32.00l 448.00,0.00 c 17.60,0.00, 32.00,14.40, 32.00,32.00L 512.00,352.00 C 512.00,369.60, 497.60,384.00, 480.00,384.00z M 256.00,40.00
		c-73.336,0.00-133.00,61.01-133.00,136.00c0.00,74.991, 59.664,136.00, 133.00,136.00c 73.337,0.00, 133.00-61.009, 133.00-136.00C 389.00,101.01, 329.337,40.00, 256.00,40.00z"  />
<glyph unicode="&#xe035;" d="M 480.00,384.00l-96.00,0.00 l-16.179,40.717C 364.619,437.522, 351.20,448.00, 338.00,448.00L 174.00,448.00 c-13.20,0.00-26.619-10.478-29.821-23.283L 128.00,384.00L 32.00,384.00 
	c-17.60,0.00-32.00-14.40-32.00-32.00l0.00-352.00 c0.00-17.60, 14.40-32.00, 32.00-32.00l 448.00,0.00 c 17.60,0.00, 32.00,14.40, 32.00,32.00L 512.00,352.00 C 512.00,369.60, 497.60,384.00, 480.00,384.00z M 448.00,32.00L 64.00,32.00 L 64.00,320.00 l 107.437,0.00 
	l 25.431,64.00l 118.265,0.00 l 25.431-64.00L 448.00,320.00 L 448.00,32.00 zM 256.00,296.00c-66.168,0.00-120.00-53.832-120.00-120.00s 53.832-120.00, 120.00-120.00s 120.00,53.832, 120.00,120.00S 322.168,296.00, 256.00,296.00z M 256.00,104.00
	c-39.701,0.00-72.00,32.299-72.00,72.00s 32.299,72.00, 72.00,72.00s 72.00-32.299, 72.00-72.00S 295.701,104.00, 256.00,104.00z"  />
<glyph unicode="&#xe036;" d="M 152.00,176.00c0.00-57.438, 46.562-104.00, 104.00-104.00s 104.00,46.562, 104.00,104.00s-46.562,104.00-104.00,104.00S 152.00,233.438, 152.00,176.00z M 480.00,352.00L 368.00,352.00 
	c-8.00,32.00-16.00,64.00-48.00,64.00L 192.00,416.00 c-32.00,0.00-40.00-32.00-48.00-64.00L 32.00,352.00 c-17.60,0.00-32.00-14.40-32.00-32.00l0.00-288.00 c0.00-17.60, 14.40-32.00, 32.00-32.00l 448.00,0.00 c 17.60,0.00, 32.00,14.40, 32.00,32.00L 512.00,320.00 
	C 512.00,337.60, 497.60,352.00, 480.00,352.00z M 256.00,34.00c-78.425,0.00-142.00,63.574-142.00,142.00c0.00,78.425, 63.575,142.00, 142.00,142.00c 78.426,0.00, 142.00-63.575, 142.00-142.00
	C 398.00,97.574, 334.427,34.00, 256.00,34.00z M 480.00,256.00l-64.00,0.00 l0.00,32.00 l 64.00,0.00 L 480.00,256.00 z"  />
<glyph unicode="&#xe037;" d="M 416.00,448.00L 96.00,448.00 c-35.20,0.00-64.00-28.80-64.00-64.00l0.00-320.00 c0.00-35.20, 28.80-64.00, 64.00-64.00l 320.00,0.00 c 35.20,0.00, 64.00,28.80, 64.00,64.00L 480.00,384.00 C 480.00,419.20, 451.20,448.00, 416.00,448.00z
	 M 336.00,192.00c0.00-44.112-35.888-80.00-80.00-80.00s-80.00,35.888-80.00,80.00c0.00,26.142, 12.605,49.393, 32.056,64.00l 95.889,0.00 C 323.395,241.393, 336.00,218.142, 336.00,192.00
	z M 160.00,384.00l 32.00,0.00 l0.00-64.00 l-32.00,0.00 L 160.00,384.00 z M 96.00,384.00l 32.00,0.00 l0.00-64.00 L 96.00,320.00 L 96.00,384.00 z M 416.00,64.114c-0.033-0.039-0.075-0.081-0.114-0.114L 256.00,64.00 L 96.114,64.00 
	c-0.04,0.033-0.081,0.075-0.114,0.114L 96.00,256.00 l 49.128,0.00 C 134.237,237.172, 128.00,215.315, 128.00,192.00c0.00-70.692, 57.308-128.00, 128.00-128.00
	s 128.00,57.308, 128.00,128.00c0.00,23.315-6.236,45.172-17.128,64.00L 416.00,256.00 L 416.00,64.114 z"  />
<glyph unicode="&#xe038;" d="M 406.079,332.794c-43.525,61.105-39.44,17.957-81.604,139.842L 279.886,480.00l-49.609-366.475
	c-111.816,63.979-182.336-1.734-164.492-84.443c 9.46-43.856, 80.716-85.137, 150.90-44.39c 33.171,19.945, 43.836,52.11, 48.07,74.919
	l 35.438,271.926c 126.445-111.487, 86.071-178.946, 59.925-256.622C 413.867,97.082, 498.058,194.859, 406.079,332.794z"  />
<glyph unicode="&#xe039;" d="M 160.00,384.00l0.00-263.703 c-14.549,4.937-30.821,7.703-48.00,7.703C 50.144,128.00,0.00,92.183,0.00,48.00s 50.144-80.00, 112.00-80.00s 112.00,35.817, 112.00,80.00
	L 224.00,199.578 l 224.00,61.091l0.00-76.372 c-14.549,4.937-30.821,7.703-48.00,7.703c-61.855,0.00-112.00-35.817-112.00-80.00s 50.145-80.00, 112.00-80.00s 112.00,35.817, 112.00,80.00L 512.00,480.00 
	L 160.00,384.00z M 224.00,249.331L 224.00,298.00 l 224.00,61.091l0.00-48.669 L 224.00,249.331z"  />
<glyph unicode="&#xe03a;" d="M 160.00,384.00 L 512.00,480.00 L 512.00,448.00 L 512.00,384.00 L 512.00,112.00 C 512.00,67.817 461.855,32.00 400.00,32.00 C 338.145,32.00 288.00,67.817 288.00,112.00 C 288.00,156.183 338.145,192.00 400.00,192.00 C 417.179,192.00 433.451,189.234 448.00,184.297 L 448.00,349.091 L 224.00,288.00 L 224.00,48.00 C 224.00,3.817 173.856-32.00 112.00-32.00 C 50.144-32.00 0.00,3.817 0.00,48.00 C 0.00,92.183 50.144,128.00 112.00,128.00 C 129.179,128.00 145.451,125.234 160.00,120.297 L 160.00,288.00 L 160.00,384.00 Z"  />
<glyph unicode="&#xe03b;" d="M 480.00,480.00L 192.00,416.00l0.00-312.02 C 171.671,118.80, 143.342,128.00, 112.00,128.00C 50.144,128.00,0.00,92.184,0.00,48.00c0.00-44.183, 50.144-80.00, 112.00-80.00
	s 112.00,35.817, 112.00,80.00L 224.00,254.708 l 256.00,56.889L 480.00,167.98 C 459.671,182.80, 431.342,192.00, 400.00,192.00c-61.855,0.00-112.00-35.816-112.00-80.00
	c0.00-44.183, 50.145-80.00, 112.00-80.00s 112.00,35.817, 112.00,80.00L 512.00,480.00 L 480.00,480.00 z M 480.00,352.574l-256.00-56.889l0.00,63.426 L 480.00,416.00L 480.00,352.574 z"  />
<glyph unicode="&#xe03c;" d="M 480.00,480.00 L 512.00,480.00 L 512.00,112.00 C 512.00,67.817 461.855,32.00 400.00,32.00 C 338.145,32.00 288.00,67.817 288.00,112.00 C 288.00,156.184 338.145,192.00 400.00,192.00 C 431.342,192.00 459.671,182.80 480.00,167.98 L 480.00,352.00 L 224.00,295.111 L 224.00,48.00 C 224.00,3.817 173.856-32.00 112.00-32.00 C 50.144-32.00 0.00,3.817 0.00,48.00 C 0.00,92.184 50.144,128.00 112.00,128.00 C 143.342,128.00 171.671,118.80 192.00,103.98 L 192.00,416.00 L 480.00,480.00 Z"  />
<glyph unicode="&#xe03d;" d="M 480.00,480.00L 192.00,416.00l0.00-312.02 C 171.671,118.80, 143.342,128.00, 112.00,128.00C 50.144,128.00,0.00,92.184,0.00,48.00c0.00-44.183, 50.144-80.00, 112.00-80.00
	s 112.00,35.817, 112.00,80.00L 224.00,254.708 l 256.00,56.889L 480.00,167.98 C 459.671,182.80, 431.342,192.00, 400.00,192.00c-61.855,0.00-112.00-35.816-112.00-80.00
	c0.00-44.183, 50.145-80.00, 112.00-80.00s 112.00,35.817, 112.00,80.00L 512.00,480.00 L 480.00,480.00 z M 112.00,6.00c-42.353,0.00-74.00,22.174-74.00,42.00s 31.647,42.00, 74.00,42.00s 74.00-22.174, 74.00-42.00
	S 154.353,6.00, 112.00,6.00z M 400.00,70.00c-42.354,0.00-74.00,22.174-74.00,42.00s 31.646,42.00, 74.00,42.00s 74.00-22.174, 74.00-42.00S 442.354,70.00, 400.00,70.00z M 480.00,352.574
	l-256.00-56.889l0.00,63.426 L 480.00,416.00L 480.00,352.574 z"  />
<glyph unicode="&#xe03e;" d="M0.00,480.00l0.00-512.00 l 480.00,0.00 L 480.00,480.00 L0.00,480.00 z M 96.00,0.00L 32.00,0.00 L 32.00,448.00 l 32.00,0.00 l0.00-320.00 l 32.00,0.00 L 96.00,0.00 z M 224.001,0.00l-96.00,0.00 L 128.001,128.00 l 32.00,0.00 L 160.001,448.00 l 32.00,0.00 l0.00-320.00 l 32.00,0.00 L 224.001,0.00 z M 352.00,0.00l-96.00,0.00 L 256.00,128.00 l 32.00,0.00 L 288.00,448.00 l 32.00,0.00 l0.00-320.00 
	l 32.00,0.00 L 352.00,0.00 z M 448.00,0.00l-64.00,0.00 L 384.00,128.00 l 32.00,0.00 L 416.00,448.00 l 32.00,0.00 L 448.00,0.00 z"  />
<glyph unicode="&#xe03f;" d="M 440.00,352.00l 72.00,64.00c-6.038,32.334-31.666,57.962-64.00,64.00l-64.00-72.00l0.00-17.109 l-90.735-90.735
	c-47.034,38.417-79.561,33.168-100.675,15.795c-20.49-16.855-28.145-50.262-39.481-60.243
	c-22.896-20.152-79.232,0.076-127.196-52.117C-29.588,143.193, 14.208,78.80, 62.504,30.504
	c 48.295-48.294, 112.689-92.092, 173.087-36.592c 52.194,47.964, 31.954,104.312, 52.105,127.207c 9.98,11.337, 43.398,18.979, 60.255,39.47
	c 17.371,21.114, 22.62,53.642-15.796,100.676L 422.891,352.00L 440.00,352.00 z M 146.565,50.565l-64.00,64.00l 26.87,26.869l 64.00-64.00L 146.565,50.565z
	 M 240.00,160.00c-26.51,0.00-48.00,21.49-48.00,48.00s 21.49,48.00, 48.00,48.00s 48.00-21.49, 48.00-48.00S 266.51,160.00, 240.00,160.00z"  />
<glyph unicode="&#xe040;" d="M 96.00,190.857l0.00-221.715 c 5.227-0.748, 10.567-1.143, 16.00-1.143l 16.00,0.00 L 128.00,192.00 l-16.00,0.00 C 106.567,192.00, 101.227,191.605, 96.00,190.857zM 384.00,192.00l0.00-224.00 l 16.00,0.00 c 5.434,0.00, 10.773,0.395, 16.00,1.143L 416.00,190.857 c-5.227,0.748-10.566,1.143-16.00,1.143L 384.00,192.00 zM 512.00,224.00C 512.00,365.385, 397.385,480.00, 256.00,480.00S0.00,365.385,0.00,224.00c0.00-30.709, 5.414-60.153, 15.328-87.437C 5.592,119.962,0.00,100.637,0.00,80.00
		c0.00-44.677, 26.163-83.239, 64.00-101.216L 64.00,181.216 c-10.063-4.781-19.29-11.03-27.429-18.452C 33.575,177.374, 32.00,192.503, 32.00,208.00
		C 32.00,331.712, 132.288,432.00, 256.00,432.00s 224.00-100.288, 224.00-224.00c0.00-15.497-1.574-30.626-4.571-45.236c-8.14,7.422-17.365,13.671-27.429,18.452
		l0.00-202.432 c 37.838,17.977, 64.00,56.539, 64.00,101.216c0.00,20.637-5.592,39.962-15.328,56.563C 506.586,163.847, 512.00,193.291, 512.00,224.00z"  />
<glyph unicode="&#xe041;" d="M 256.001,416.00C 132.288,416.00, 32.00,315.712, 32.00,192.00l0.00-96.00 l 32.00,0.00 l0.00,96.00 c0.00,106.039, 85.961,160.00, 192.00,160.00s 192.00-53.961, 192.00-160.00l0.00-96.00 l 32.00,0.00 l0.00,96.00 
		C 480.001,315.712, 379.712,416.00, 256.001,416.00zM 138.667,192.00l-21.333,0.00 C 105.60,192.00, 96.00,182.40, 96.00,170.667l0.00-117.334 C 96.00,41.601, 105.60,32.00, 117.333,32.00l 21.333,0.00 
		C 150.40,32.00, 160.00,41.601, 160.00,53.333L 160.00,170.667 C 160.00,182.40, 150.40,192.00, 138.667,192.00zM 394.666,192.00l-21.334,0.00 c-11.731,0.00-21.331-9.60-21.331-21.333l0.00-117.334 c0.00-11.732, 9.60-21.333, 21.331-21.333l 21.334,0.00 
		C 406.40,32.00, 416.00,41.601, 416.00,53.333L 416.00,170.667 C 416.001,182.40, 406.401,192.00, 394.666,192.00z"  />
<glyph unicode="&#xe042;" d="M 490.594,399.946C 418.778,410.271, 339.428,416.00, 256.001,416.00c-83.43,0.00-162.778-5.729-234.597-16.054
	C 7.639,346.083,0.00,286.571,0.00,224.00c0.00-62.57, 7.639-122.083, 21.404-175.945C 93.223,37.729, 172.572,32.00, 256.001,32.00
	c 83.427,0.00, 162.776,5.729, 234.593,16.055C 504.36,101.917, 512.00,161.43, 512.00,224.00C 512.00,286.571, 504.36,346.083, 490.594,399.946z
	 M 192.001,128.00L 192.001,320.00 l 160.00-96.00L 192.001,128.00z"  />
<glyph unicode="&#xe043;" d="M 192.00,331.075L 192.00,180.925L 322.033,255.996 	zM0.00,384.00l0.00-320.00 l 512.00,0.00 L 512.00,384.00 L0.00,384.00 z M 480.00,96.00L 32.00,96.00 l0.00,32.00 l 448.00,0.00 L 480.00,96.00 z M 480.00,160.00L 32.00,160.00 L 32.00,352.00 l 448.00,0.00 L 480.00,160.00 z"  />
<glyph unicode="&#xe044;" d="M 39.151,348.73L 471.873,464.672L 496.718,371.946L 63.996,256.004zM 64.00,256.00l0.00-288.00 l 448.00,0.00 L 512.00,256.00 L 64.00,256.00 z M 224.00,32.00L 224.00,192.00 l 128.00-80.00L 224.00,32.00z"  />
<glyph unicode="&#xe045;" d="M 32.00,256.00l0.00-288.00 l 480.00,0.00 L 512.00,256.00 L 32.00,256.00 z M 480.00,160.00L 64.00,160.00 l0.00,32.00 l 416.00,0.00 L 480.00,160.00 zM 14.628,414.857L 32.00,288.041l 475.559,65.144L 490.188,480.00L 14.628,414.857z M 184.497,341.229l-89.771-12.297l 54.722,72.094
	l 89.771,12.297L 184.497,341.229z M 369.767,366.608l-89.771-12.297l 54.722,72.094l 89.771,12.297L 369.767,366.608z"  />
<glyph unicode="&#xe046;" d="M 256.00,480.00C 114.615,480.00,0.00,365.385,0.00,224.00s 114.615-256.00, 256.00-256.00s 256.00,114.615, 256.00,256.00S 397.385,480.00, 256.00,480.00z M 256.00,423.191
	c 30.187,0.00, 54.658-24.471, 54.658-54.659c0.00-30.187-24.472-54.658-54.658-54.658c-30.188,0.00-54.658,24.471-54.658,54.658
	C 201.342,398.72, 225.812,423.191, 256.00,423.191z M 57.778,272.636c0.00,30.187, 24.471,54.658, 54.659,54.658
	c 30.187,0.00, 54.658-24.471, 54.658-54.658c0.00-30.188-24.471-54.659-54.658-54.659C 82.25,217.978, 57.778,242.449, 57.778,272.636z
	 M 169.201,57.356c-30.187,0.00-54.658,24.471-54.658,54.658s 24.472,54.659, 54.658,54.659c 30.187,0.00, 54.659-24.472, 54.659-54.659
	S 199.388,57.356, 169.201,57.356z M 256.00,192.00c-17.673,0.00-32.00,14.327-32.00,32.00c0.00,17.673, 14.327,32.00, 32.00,32.00c 17.673,0.00, 32.00-14.327, 32.00-32.00
	C 288.00,206.327, 273.673,192.00, 256.00,192.00z M 342.799,57.031c-30.188,0.00-54.658,24.471-54.658,54.658s 24.471,54.659, 54.658,54.659
	c 30.187,0.00, 54.658-24.472, 54.658-54.659S 372.985,57.031, 342.799,57.031z M 399.562,217.652c-30.187,0.00-54.658,24.471-54.658,54.659
	c0.00,30.187, 24.472,54.658, 54.658,54.658c 30.188,0.00, 54.659-24.471, 54.659-54.658C 454.222,242.124, 429.751,217.652, 399.562,217.652z"  />
<glyph unicode="&#xe047;" d="M0.00,480.00l0.00-512.00 l 512.00,0.00 L 512.00,480.00 L0.00,480.00 z M 320.00,448.00l 64.00,0.00 l0.00-64.00 l-64.00,0.00 L 320.00,448.00 z M 224.00,448.00l 64.00,0.00 l0.00-64.00 l-64.00,0.00 L 224.00,448.00 z M 128.00,448.00l 64.00,0.00 l0.00-64.00 l-64.00,0.00 L 128.00,448.00 z M 32.00,448.00l 64.00,0.00 l0.00-64.00 L 32.00,384.00 L 32.00,448.00 z M 32.00,352.00l 192.00,0.00 l0.00-256.00 
	L 32.00,96.00 L 32.00,352.00 z M 96.00,0.00L 32.00,0.00 l0.00,64.00 l 64.00,0.00 L 96.00,0.00 z M 192.00,0.00l-64.00,0.00 l0.00,64.00 l 64.00,0.00 L 192.00,0.00 z M 288.00,0.00l-64.00,0.00 l0.00,64.00 l 64.00,0.00 L 288.00,0.00 z M 384.00,0.00l-64.00,0.00 l0.00,64.00 l 64.00,0.00 L 384.00,0.00 z M 480.00,0.00l-64.00,0.00 l0.00,64.00 l 64.00,0.00 
	L 480.00,0.00 z M 480.00,96.00L 256.00,96.00 L 256.00,352.00 l 224.00,0.00 L 480.00,96.00 z M 480.00,384.00l-64.00,0.00 L 416.00,448.00 l 64.00,0.00 L 480.00,384.00 z"  />
<glyph unicode="&#xe048;" d="M0.00,448.00l0.00-448.00 l 512.00,0.00 L 512.00,448.00 L0.00,448.00 z M 96.00,32.00L 32.00,32.00 l0.00,64.00 l 64.00,0.00 L 96.00,32.00 z M 96.00,128.00L 32.00,128.00 l0.00,64.00 l 64.00,0.00 L 96.00,128.00 z M 96.00,256.00L 32.00,256.00 l0.00,64.00 l 64.00,0.00 L 96.00,256.00 z M 96.00,352.00L 32.00,352.00 L 32.00,416.00 l 64.00,0.00 L 96.00,352.00 z M 384.00,32.00
	L 128.00,32.00 l0.00,64.00 l0.00,32.00 l0.00,64.00 l 256.00,0.00 L 384.00,32.00 z M 384.00,256.00L 128.00,256.00 L 128.00,416.00 l 256.00,0.00 L 384.00,256.00 z M 480.00,32.00l-64.00,0.00 l0.00,64.00 l 64.00,0.00 L 480.00,32.00 z M 480.00,128.00l-64.00,0.00 l0.00,64.00 l 64.00,0.00 L 480.00,128.00 z M 480.00,256.00l-64.00,0.00 l0.00,64.00 l 64.00,0.00 L 480.00,256.00 z
	 M 480.00,352.00l-64.00,0.00 L 416.00,416.00 l 64.00,0.00 L 480.00,352.00 z"  />
<glyph unicode="&#xe049;" d="M0.00,416.00l0.00-384.00 l 512.00,0.00 L 512.00,416.00 L0.00,416.00 z M 96.00,64.00L 32.00,64.00 l0.00,64.00 l 64.00,0.00 L 96.00,64.00 z M 96.00,192.00L 32.00,192.00 l0.00,64.00 l 64.00,0.00 L 96.00,192.00 z M 96.00,320.00L 32.00,320.00 L 32.00,384.00 l 64.00,0.00 L 96.00,320.00 z M 384.00,64.00L 128.00,64.00 L 128.00,384.00 l 256.00,0.00 L 384.00,64.00 z
	 M 480.00,64.00l-64.00,0.00 l0.00,64.00 l 64.00,0.00 L 480.00,64.00 z M 480.00,192.00l-64.00,0.00 l0.00,64.00 l 64.00,0.00 L 480.00,192.00 z M 480.00,320.00l-64.00,0.00 L 416.00,384.00 l 64.00,0.00 L 480.00,320.00 z"  />
<glyph unicode="&#xe04a;" d="M0.00,416.00l0.00-384.00 l 512.00,0.00 L 512.00,416.00 L0.00,416.00 z M 96.00,64.00L 32.00,64.00 l0.00,64.00 l 64.00,0.00 L 96.00,64.00 z M 96.00,192.00L 32.00,192.00 l0.00,64.00 l 64.00,0.00 L 96.00,192.00 z M 96.00,320.00L 32.00,320.00 L 32.00,384.00 l 64.00,0.00 L 96.00,320.00 z M 384.00,64.00L 128.00,64.00 L 128.00,384.00 l 256.00,0.00 L 384.00,64.00 z
		 M 480.00,64.00l-64.00,0.00 l0.00,64.00 l 64.00,0.00 L 480.00,64.00 z M 480.00,192.00l-64.00,0.00 l0.00,64.00 l 64.00,0.00 L 480.00,192.00 z M 480.00,320.00l-64.00,0.00 L 416.00,384.00 l 64.00,0.00 L 480.00,320.00 zM 192.00,320.00L 192.00,128.00L 320.00,224.00 	z"  />
<glyph unicode="&#xe04b;" d="M 192.00,336.00A80.00,80.00 10980.00 1 0 352.00,336A80.00,80.00 10980.00 1 0 192.00,336zM0.00,336.00A80.00,80.00 10980.00 1 0 160.00,336A80.00,80.00 10980.00 1 0 0.00,336zM 384.00,176.00l0.00,48.00 c0.00,17.60-14.40,32.00-32.00,32.00l-80.00,0.00 L 80.00,256.00 L 32.00,256.00 c-17.60,0.00-32.00-14.40-32.00-32.00l0.00-160.00 c0.00-17.60, 14.40-32.00, 32.00-32.00l 320.00,0.00 c 17.60,0.00, 32.00,14.40, 32.00,32.00
		l0.00,48.00 l 128.00-80.00L 512.00,256.00 L 384.00,176.00z M 320.00,96.00L 64.00,96.00 l0.00,96.00 l 256.00,0.00 L 320.00,96.00 z"  />
<glyph unicode="&#xe04c;" d="M 489.42,351.874c-5.294,0.00-10.729-1.861-15.718-5.383L 384.00,283.184L 384.00,336.00 c0.00,26.40-21.60,48.00-48.00,48.00L 48.00,384.00 c-26.40,0.00-48.00-21.60-48.00-48.00l0.00-224.00 
	c0.00-26.40, 21.60-48.00, 48.00-48.00l 288.00,0.00 c 26.40,0.00, 48.00,21.60, 48.00,48.00l0.00,52.815 l 89.701-63.307c 4.989-3.521, 10.424-5.382, 15.717-5.383
	c 0.001,0.00, 0.001,0.00, 0.003,0.00c 7.044,0.00, 13.477,3.248, 17.646,8.911c 3.228,4.385, 4.934,10.027, 4.934,16.318L 512.001,326.645 
	C 512.00,343.208, 500.641,351.874, 489.42,351.874z"  />
<glyph unicode="&#xe04d;" d="M 489.42,351.874c-5.294,0.00-10.729-1.861-15.718-5.383L 384.00,283.184L 384.00,336.00 c0.00,26.40-21.60,48.00-48.00,48.00L 48.00,384.00 c-26.40,0.00-48.00-21.60-48.00-48.00l0.00-224.00 
	c0.00-26.40, 21.60-48.00, 48.00-48.00l 288.00,0.00 c 26.40,0.00, 48.00,21.60, 48.00,48.00l0.00,52.815 l 89.701-63.307c 4.989-3.521, 10.424-5.382, 15.717-5.383
	c 0.001,0.00, 0.001,0.00, 0.003,0.00c 7.044,0.00, 13.477,3.248, 17.646,8.911c 3.228,4.385, 4.934,10.027, 4.934,16.318L 512.001,326.645 
	C 512.00,343.208, 500.641,351.874, 489.42,351.874z M 480.00,136.23L 400.979,192.00L 352.00,192.00 l0.00-80.00 c0.00-8.673-7.327-16.00-16.00-16.00L 48.00,96.00 c-8.673,0.00-16.00,7.327-16.00,16.00
	L 32.00,336.00 c0.00,8.673, 7.327,16.00, 16.00,16.00l 288.00,0.00 c 8.673,0.00, 16.00-7.327, 16.00-16.00l0.00-80.00 l 48.979,0.00 L 480.00,311.77L 480.00,136.23 z"  />
<glyph unicode="&#xe04e;" d="M 352.00,112.00c0.00-26.40-21.60-48.00-48.00-48.00L 80.00,64.00 c-26.40,0.00-48.00,21.60-48.00,48.00L 32.00,304.00 c0.00,26.40, 21.60,48.00, 48.00,48.00l 224.00,0.00 c 26.40,0.00, 48.00-21.60, 48.00-48.00L 352.00,112.00 zM 480.00,320.00 L 480.00,96.00 C 480.00,69.60 464.727,63.273 446.059,81.942 L 353.942,174.059 C 335.274,192.727 335.274,223.274 353.942,241.941 L 446.059,334.059 C 464.727,352.727 480.00,346.40 480.00,320.00 Z"  />
<glyph unicode="&#xe04f;" d="M 291.571,64.00l-199.00,0.00 C 59.172,64.00, 32.00,90.317, 32.00,122.666L 32.00,293.333 C 32.00,325.682, 59.172,352.00, 92.571,352.00l 199.00,0.00 
		c 33.399,0.00, 60.571-26.318, 60.571-58.667l0.00-21.70 l 69.58,60.266c 9.591,9.084, 19.306,13.69, 28.881,13.69
		c 13.561,0.00, 29.396-9.961, 29.396-38.033l0.00-199.111 c0.00-10.083-2.061-18.469-6.124-24.924c-5.244-8.331-13.727-13.109-23.271-13.109
		c-0.001,0.00-0.001,0.00-0.003,0.00c-9.574,0.001-19.287,4.605-28.877,13.688l-69.582,60.267l0.00-21.699 
		C 352.143,90.317, 324.971,64.00, 291.571,64.00z M 92.571,320.00C 76.817,320.00, 64.00,308.037, 64.00,293.333l0.00-170.667 
		C 64.00,107.962, 76.817,96.00, 92.571,96.00l 199.00,0.00 c 15.754,0.00, 28.571,11.962, 28.571,26.666l0.00,57.005 c0.00,6.58, 4.028,12.489, 10.153,14.894
		c 6.124,2.402, 13.098,0.814, 17.573-4.008c 0.328-0.354, 0.625-0.663, 0.902-0.938l 94.188-81.577c 0.20-0.175, 0.396-0.354, 0.589-0.537
		c 1.623-1.554, 3.029-2.668, 4.174-3.453c 0.163,1.159, 0.278,2.615, 0.278,4.393L 447.999,307.556 c0.00,1.777-0.115,3.233-0.278,4.392
		c-1.145-0.784-2.551-1.899-4.174-3.453c-0.192-0.184-0.389-0.362-0.589-0.536l-94.19-81.581c-0.273-0.271-0.573-0.582-0.908-0.942
		c-4.479-4.817-11.445-6.404-17.571-3.996c-6.121,2.406-10.146,8.313-10.146,14.891l0.00,57.004 c0.00,14.704-12.817,26.667-28.571,26.667
		L 92.571,320.002 z"  />
<glyph unicode="&#xe050;" d="M 432.00,384.00L 176.00,384.00 c-44.00,0.00-80.00-36.00-80.00-80.00l0.00-256.00 c0.00-44.00, 36.00-80.00, 80.00-80.00l 256.00,0.00 c 44.00,0.00, 80.00,36.00, 80.00,80.00L 512.00,304.00 C 512.00,348.00, 476.00,384.00, 432.00,384.00z M 208.00,32.00
	c-26.51,0.00-48.00,21.49-48.00,48.00s 21.49,48.00, 48.00,48.00s 48.00-21.49, 48.00-48.00S 234.51,32.00, 208.00,32.00z M 208.00,224.00c-26.51,0.00-48.00,21.49-48.00,48.00s 21.49,48.00, 48.00,48.00
	s 48.00-21.49, 48.00-48.00S 234.51,224.00, 208.00,224.00z M 304.00,128.00c-26.51,0.00-48.00,21.49-48.00,48.00s 21.49,48.00, 48.00,48.00s 48.00-21.49, 48.00-48.00S 330.51,128.00, 304.00,128.00z M 400.00,32.00
	c-26.51,0.00-48.00,21.49-48.00,48.00s 21.49,48.00, 48.00,48.00s 48.00-21.49, 48.00-48.00S 426.51,32.00, 400.00,32.00z M 400.00,224.00c-26.51,0.00-48.00,21.49-48.00,48.00s 21.49,48.00, 48.00,48.00
	s 48.00-21.49, 48.00-48.00S 426.51,224.00, 400.00,224.00z M 414.38,416.00C 406.915,452.402, 374.525,480.00, 336.00,480.00L 80.00,480.00 C 36.00,480.00,0.00,444.00,0.00,400.00l0.00-256.00 
	c0.00-38.523, 27.598-70.915, 64.00-78.38L 64.00,384.00 c0.00,17.60, 14.40,32.00, 32.00,32.00L 414.38,416.00 z"  />
<glyph unicode="&#xe051;" d="M 160.00,320.00L 128.00,320.00L 128.00,288.00L 96.00,288.00L 96.00,256.00L 128.00,256.00L 128.00,224.00L 160.00,224.00L 160.00,256.00L 192.00,256.00L 192.00,288.00L 160.00,288.00 	zM 320.00,296.00A24.00,24.00 12780.00 1 0 368.00,296A24.00,24.00 12780.00 1 0 320.00,296zM 368.00,248.00A24.00,24.00 12780.00 1 0 416.00,248A24.00,24.00 12780.00 1 0 368.00,248zM 369.736,394.074c-58.11,0.00-67.181-34.417-113.735-34.421c-46.555,0.004-55.625,34.421-113.735,34.421
		C 48.53,394.074,0.00,279.337,0.00,197.261c0.00-77.651, 7.296-134.155, 36.344-142.085c 29.063-7.958, 66.085,23.379, 102.175,57.36
		c 36.081,33.981, 42.174,31.771, 71.229,31.771L 256.00,143.285l 46.252,1.021c 29.056,0.00, 35.148,2.211, 71.229-31.771
		c 36.09-33.981, 73.111-65.318, 102.175-57.36C 504.704,63.105, 512.00,119.609, 512.00,197.261C 512.00,279.337, 463.471,394.074, 369.736,394.074z
		 M 144.00,192.00c-44.183,0.00-80.00,35.817-80.00,80.00s 35.817,80.00, 80.00,80.00s 80.00-35.817, 80.00-80.00S 188.183,192.00, 144.00,192.00z M 368.00,192.00c-44.183,0.00-80.00,35.817-80.00,80.00
		s 35.817,80.00, 80.00,80.00s 80.00-35.817, 80.00-80.00S 412.183,192.00, 368.00,192.00z"  />
<glyph unicode="&#xe052;" d="M 475.931,322.066c-12.993,21.217-28.493,38.025-46.064,49.957C 409.825,385.63, 387.61,392.53, 363.839,392.53
		c-32.558,0.00-50.831-10.297-66.954-19.382c-13.141-7.404-23.52-13.253-40.882-13.255c-17.366,0.001-27.746,5.851-40.887,13.255
		c-16.122,9.084-34.395,19.381-66.952,19.381c-23.772,0.00-45.987-6.899-66.027-20.506c-17.574-11.932-33.072-28.74-46.066-49.957
		C 13.484,285.186,0.00,236.805,0.00,192.646c0.00-42.424, 2.291-72.609, 7.21-94.996c 6.673-30.364, 18.785-47.547, 37.017-52.523
		c 4.014-1.10, 8.24-1.656, 12.562-1.656c 31.438,0.00, 65.118,29.235, 96.922,59.182c 28.18,26.541, 33.171,26.541, 49.708,26.541
		c 1.258,0.00, 2.563-0.006, 3.925-0.014c 1.483-0.008, 3.031-0.015, 4.653-0.015L 256.00,128.191l 44.002,0.974c 1.622,0.00, 3.169,0.007, 4.652,0.015
		c 1.361,0.008, 2.669,0.014, 3.926,0.014c 16.537,0.00, 21.529,0.00, 49.71-26.541c 31.803-29.946, 65.482-59.182, 96.92-59.183
		c 0.001,0.00, 0.001,0.00, 0.002,0.00c 4.32,0.00, 8.547,0.558, 12.551,1.653c 18.243,4.979, 30.354,22.162, 37.026,52.525
		c 4.919,22.389, 7.211,52.574, 7.211,94.998C 512.00,236.805, 498.516,285.186, 475.931,322.066z M 473.534,104.517
		c-3.554-16.173-8.993-27.103-14.218-28.528c-1.257-0.344-2.638-0.519-4.105-0.519c-21.375,0.001-57.583,34.095-74.981,50.478
		c-17.039,16.048-27.119,23.831-37.192,28.719c-13.453,6.527-24.612,6.527-34.457,6.527c-1.314,0.00-2.683-0.006-4.096-0.014
		c-1.429-0.008-2.92-0.015-4.482-0.015l-0.354,0.00 l-0.354-0.008L 256.00,160.199l-43.295,0.958l-0.354,0.008l-0.354,0.00 
		c-1.563,0.00-3.054,0.007-4.472,0.014c-1.425,0.009-2.791,0.015-4.106,0.015c-9.845,0.00-21.004,0.00-34.457-6.528
		c-10.072-4.887-20.152-12.67-37.188-28.715c-17.401-16.385-53.61-50.479-74.985-50.479c-1.468,0.00-2.85,0.175-4.136,0.526
		c-5.198,1.419-10.635,12.348-14.189,28.521C 34.054,124.589, 32.00,152.593, 32.00,192.646c0.00,18.804, 2.901,39.153, 8.391,58.848
		c 5.472,19.634, 13.415,38.258, 22.969,53.859c 10.603,17.312, 22.968,30.836, 36.753,40.195c 14.639,9.94, 30.805,14.98, 48.051,14.98
		c 24.161,0.00, 36.71-7.071, 51.251-15.264c 14.451-8.142, 30.83-17.37, 56.592-17.372c 25.752,0.003, 42.13,9.23, 56.588,17.376
		c 14.531,8.188, 27.082,15.26, 51.244,15.26c 17.244,0.00, 33.411-5.041, 48.05-14.98c 13.787-9.362, 26.152-22.886, 36.753-40.196
		c 9.554-15.601, 17.496-34.225, 22.968-53.859c 5.489-19.695, 8.391-40.044, 8.391-58.848C 480.00,152.597, 477.945,124.592, 473.534,104.517zM 320.00,288.00A32.00,32.00 6300.00 1 0 384.00,288A32.00,32.00 6300.00 1 0 320.00,288zM 384.00,224.00A32.00,32.00 6300.00 1 0 448.00,224A32.00,32.00 6300.00 1 0 384.00,224zM 128.00,288.00c 17.645,0.00, 32.00-14.355, 32.00-32.00s-14.355-32.00-32.00-32.00s-32.00,14.355-32.00,32.00S 110.355,288.00, 128.00,288.00 M 128.00,320.00
		c-35.29,0.00-64.00-28.71-64.00-64.00c0.00-35.29, 28.71-64.00, 64.00-64.00s 64.00,28.71, 64.00,64.00C 192.00,291.29, 163.29,320.00, 128.00,320.00L 128.00,320.00z"  />
<glyph unicode="&#xe053;" d="M 400.00,320.00L 112.00,320.00 C 50.144,320.00,0.00,269.856,0.00,208.00c0.00-61.855, 50.144-112.00, 112.00-112.00c 44.677,0.00, 83.237,26.162, 101.215,64.00l 85.567,0.00 
	c 17.978-37.838, 56.538-64.00, 101.218-64.00c 61.854,0.00, 112.00,50.145, 112.00,112.00C 512.00,269.856, 461.857,320.00, 400.00,320.00z M 168.89,192.00L 128.00,192.00 l0.00-40.891 L 96.00,151.109 L 96.00,192.00 
	L 55.11,192.00 l0.00,32.00 L 96.00,224.00 l0.00,40.89 l 32.00,0.00 L 128.00,224.00 l 40.89,0.00 L 168.89,192.00 z M 368.00,151.109c-13.747,0.00-24.892,11.145-24.892,24.891s 11.145,24.891, 24.892,24.891
	c 13.743,0.00, 24.89-11.145, 24.89-24.891S 381.743,151.109, 368.00,151.109z M 432.00,215.109c-13.747,0.00-24.892,11.144-24.892,24.891
	s 11.145,24.89, 24.892,24.89c 13.743,0.00, 24.891-11.144, 24.891-24.89S 445.743,215.109, 432.00,215.109z"  />
<glyph unicode="&#xe054;" d="M 482.365,390.598C 435.414,445.323, 365.76,480.00, 288.00,480.00C 146.615,480.00, 32.00,365.385, 32.00,224.00s 114.615-256.00, 256.00-256.00
	c 77.76,0.00, 147.414,34.678, 194.364,89.402L 320.00,224.00L 482.365,390.598z M 352.00,419.699c 19.716,0.00, 35.699-15.982, 35.699-35.699
	c0.00-19.716-15.983-35.699-35.699-35.699S 316.301,364.284, 316.301,384.00C 316.301,403.716, 332.284,419.699, 352.00,419.699z"  />
<glyph unicode="&#xe055;" d="M 408.785,305.925C 312.002,377.854, 278.652,435.434, 256.002,479.999l0.00,0.00C 256.00,479.999, 256.00,480.00, 256.00,480.00l0.00-0.001 
	c-22.648-44.565-56.00-102.146-152.783-174.074c-165.018-122.643-9.688-293.834, 126.879-199.612
	c-8.898-58.465-39.265-101.086-70.104-119.441L 159.992-32.00 l 96.008,0.00 l 96.008,0.00 l0.00,18.87 c-30.841,18.354-61.205,60.977-70.106,119.442
	C 418.47,12.089, 573.802,183.282, 408.785,305.925z"  />
<glyph unicode="&#xe056;" d="M 393.416,283.614c-29.516,0.00-56.043-12.298-74.926-32.347c-7.998-8.492-21.881-18.556-36.90-27.405
	c 7.055,26.934, 29.338,60.85, 44.814,75.728c 19.82,19.085, 31.992,45.915, 31.992,75.75C 358.399,432.787, 312.658,479.388, 256.002,480.00
	c-56.66-0.611-102.398-47.213-102.398-104.659c0.00-29.836, 12.172-56.665, 31.993-75.75c 15.477-14.878, 37.76-48.794, 44.814-75.728
	c-15.021,8.85-28.903,18.913-36.90,27.405c-18.884,20.049-45.41,32.347-74.925,32.347c-57.193,0.00-103.54-46.832-103.54-104.664
	c0.00-57.819, 46.346-104.669, 103.54-104.669c 29.521,0.00, 56.041,12.678, 74.925,32.726c 8.402,8.936, 23.222,20.069, 39.146,29.316
	c-1.501-73.846-36.766-128.084-72.659-149.453L 159.998-32.00 l 96.005,0.00 l 96.002,0.00 l0.00,18.87 c-35.896,21.368-71.16,75.608-72.66,149.453
	c 15.926-9.247, 30.744-20.384, 39.146-29.316c 18.883-20.047, 45.404-32.726, 74.926-32.726c 57.193,0.00, 103.539,46.85, 103.539,104.669
	C 496.955,236.782, 450.61,283.614, 393.416,283.614z"  />
<glyph unicode="&#xe057;" d="M 256.00,480.00L 96.00,224.00L 256.00-32.00L 416.00,224.00 z"  />
<glyph unicode="&#xe058;" d="M 487.024,347.25c-16.872,16.872-40.057,24.976-65.75,24.976c-34.444,0.00-73.404-14.558-107.766-42.062
		c-8.132,24.908-23.24,43.758-41.509,50.811L 271.999,416.00 l 48.00,0.00 L 319.999,448.00 l-48.00,0.00 L 271.999,480.00 l-32.00,0.00 l0.00-32.00 l-48.00,0.00 l0.00-32.00 l 48.00,0.00 l0.00-35.024 c-18.268-7.053-33.376-25.902-41.508-50.809
		c-34.361,27.503-73.321,42.062-107.765,42.06c-25.693-0.002-48.879-8.104-65.75-24.976
		c-43.739-43.739-28.542-129.85, 33.941-192.333C 70.596,143.239, 83.103,133.224, 96.00,124.925l0.00-46.882 
		C 139.829,69.258, 195.454,64.00, 256.00,64.00s 116.171,5.258, 160.00,14.043l0.00,46.88 c 12.897,8.298, 25.404,18.314, 37.083,29.993
		C 515.566,217.40, 530.763,303.512, 487.024,347.25z M 81.546,290.678c 0.539,0.36, 3.423,1.548, 9.181,1.549l 0.006,0.00 l 0.002,0.00 
		c 15.925,0.00, 43.814-9.293, 70.005-35.484c 17.287-17.287, 29.66-38.181, 33.948-57.326c 3.059-13.66, 0.767-20.748-0.007-21.868
		c-0.536-0.359-3.416-1.549-9.18-1.549c-15.928,0.00-43.822,9.294-70.015,35.486c-17.288,17.289-29.662,38.185-33.948,57.33
		C 78.48,282.472, 80.772,289.557, 81.546,290.678z M 430.461,268.81c-4.287-19.145-16.66-40.039-33.946-57.324
		C 370.322,185.293, 342.429,176.00, 326.50,176.00c-5.762,0.00-8.644,1.188-9.18,1.548c-0.773,1.119-3.066,8.204-0.009,21.862
		c 4.286,19.146, 16.66,40.041, 33.948,57.33c 26.192,26.192, 54.087,35.486, 70.015,35.486c 5.764,0.00, 8.645-1.188, 9.18-1.548
		C 431.228,289.558, 433.521,282.47, 430.461,268.81zM 96.00,29.168l0.00-47.125 C 139.829-26.742, 195.454-32.00, 256.00-32.00s 116.171,5.258, 160.00,14.043l0.00,47.125 
		C 369.086,20.543, 314.02,16.00, 256.00,16.00S 142.914,20.543, 96.00,29.168z"  />
<glyph unicode="&#xe059;" d="M 256.00,0.00c-57.294,0.00-112.881,4.967-156.521,13.984c-1.169,0.241-2.328,0.487-3.479,0.734l0.00-32.676 
		C 139.829-26.742, 195.454-32.00, 256.00-32.00s 116.171,5.258, 160.00,14.043l0.00,32.676 c-1.151-0.247-2.31-0.493-3.479-0.734
		C 368.882,4.967, 313.295,0.00, 256.00,0.00zM 384.00,49.003L 384.00,64.00 l-16.00,32.00L 144.00,96.00 l-16.00-32.00l0.00-14.997 c 37.655-5.446, 81.37-8.564, 128.00-8.564
		C 302.631,40.438, 346.345,43.557, 384.00,49.003zM 500.754,339.172c-14.997,14.997-39.311,14.997-54.307,0.00c-12.725-12.724-14.646-32.154-5.776-46.911l-97.661-58.597
		l 19.253,90.858c 16.84-3.581, 34.585,4.562, 42.474,20.735c 9.297,19.062, 1.381,42.05-17.68,51.347
		c-19.062,9.297-42.051,1.381-51.348-17.681c-7.889-16.174-3.38-35.171, 9.811-46.236l-59.104-70.348l-21.101,84.403
		c 16.705,4.163, 29.085,19.261, 29.085,37.256c0.00,21.208-17.192,38.40-38.399,38.40c-21.208,0.00-38.40-17.192-38.40-38.40
		c0.00-17.995, 12.38-33.093, 29.086-37.256l-21.101-84.403l-59.104,70.348c 13.19,11.065, 17.699,30.062, 9.811,46.236
		c-9.297,19.062-32.286,26.978-51.348,17.681c-19.061-9.297-26.977-32.286-17.68-51.347c 7.888-16.174, 25.634-24.316, 42.474-20.735
		l 19.252-90.858l-97.66,58.597c 8.87,14.757, 6.947,34.187-5.777,46.911c-14.996,14.997-39.31,14.997-54.307,0.00
		c-14.995-14.996-14.995-39.309, 0.001-54.306c 12.724-12.724, 32.154-14.646, 46.91-5.777L 148.811,128.00l 214.378,0.00 l 90.653,151.089
		c 14.756-8.869, 34.186-6.947, 46.91,5.777C 515.749,299.863, 515.749,324.177, 500.754,339.172z"  />
<glyph unicode="&#xe05a;" d="M 96.00,336.00L 384.00,336.00L 384.00,80.00L 96.00,80.00zM 384.00,352.00l 64.00,64.00L 448.00,480.00 l-64.00,0.00 l0.00-32.00 l-96.00,0.00 L 288.00,480.00 l-96.00,0.00 l0.00-32.00 L 96.00,448.00 L 96.00,480.00 L 32.00,480.00 l0.00-64.00 l 64.00-64.00L 384.00,352.00 z M 384.00,400.00l-16.00-16.00L 112.00,384.00 L 96.00,400.00L 384.00,400.00 zM 64.00,64.00L 416.00,64.00L 416.00,32.00L 64.00,32.00zM 448.00,16.00L 32.00,16.00 c0.00,0.00-24.50-16.00-32.00-48.00l 480.00,0.00 C 472.50,0.00, 448.00,16.00, 448.00,16.00z"  />
<glyph unicode="&#xe05b;" d="M 396.797,96.00L 83.204,96.00 c 14.825-36.516, 79.39-64.00, 156.796-64.00S 381.972,59.484, 396.797,96.00zM0.00-32.00l 45.00,0.00 c0.00,1.29, 1.402,5.613, 5.57,10.059S 58.791-16.00, 60.00-16.00l 135.00,0.00 c 26.719,0.50, 45.00,31.50, 45.00,48.00c0.00,0.00-150.00,0.00-180.00,0.00S0.00,0.00,0.00-32.00zM 420.00,32.00c-30.00,0.00-180.00,0.00-180.00,0.00c0.00-16.50, 18.281-47.50, 45.00-48.00l 135.00,0.00 c 1.209,0.00, 5.263-1.496, 9.43-5.941
		c 4.168-4.445, 5.57-8.769, 5.57-10.059l 45.00,0.00 C 480.00,0.00, 450.00,32.00, 420.00,32.00zM 240.00,128.00l 156.797,0.00 c-6.501,16.013-22.567,30.287-45.086,41.271C 362.08,183.277, 368.00,201.294, 368.00,224.00
		c0.00,80.469-58.467,132.785-99.354,151.882C 285.024,385.653, 296.00,403.542, 296.00,424.00c0.00,30.928-25.072,56.00-56.00,56.00c-30.928,0.00-56.00-25.072-56.00-56.00
		c0.00-20.458, 10.976-38.347, 27.354-48.118C 170.467,356.785, 112.00,304.469, 112.00,224.00c0.00-22.706, 5.92-40.723, 16.289-54.729
		C 105.771,158.287, 89.704,144.012, 83.204,128.00L 240.00,128.00 C 240.00,128.00, 240.00,128.00, 240.00,128.00z M 160.00,256.00l0.00,32.00 l 64.00,0.00 l0.00,64.00 l 32.00,0.00 l0.00-64.00 l 64.00,0.00 l0.00-32.00 l-64.00,0.00 l0.00-64.00 l-32.00,0.00 l0.00,64.00 L 160.00,256.00 z"  />
<glyph unicode="&#xe05c;" d="M 496.00,0.00L 128.00,0.00L 112.00-32.00L 512.00-32.00 	zM 283.746,224.00c 6.724-103.949-84.766-144.757-116.334-208.00L 480.00,16.00 c0.00,35.797,0.00,92.966,0.00,176.00
		c0.00,111.17-43.536,191.427-94.956,230.07c-2.373,10.093-5.959,21.243-9.954,30.304l-6.18,14.013
		c-7.102,16.104-22.144,18.229-33.426,4.722l-19.313-23.118C 316.03,447.992, 315.888,448.00, 315.746,448.00
		c-8.234,0.00-15.821-0.257-22.854-0.745L 250.626,475.433C 235.981,485.196, 224.00,478.784, 224.00,461.184l0.00-32.592 
		c-12.982-7.351-23.863-16.243-36.254-25.691c-32.00-24.399-108.926-121.066-160.00-178.901c-47.246-53.50-21.725-96.00, 23.00-86.00
		c-2.246-42.00, 32.754-28.50, 57.00-10.00C 163.653,170.657, 288.50,150.50, 283.746,224.00z M 387.463,393.462c 17.253-17.466, 32.154-39.811, 43.73-65.751
		C 448.981,287.854, 458.00,242.194, 458.00,192.00l0.00-144.00 l-48.00,48.00l0.00,96.00 c0.00,43.411-7.617,82.489-22.64,116.149
		c-9.204,20.625-20.739,38.084-33.835,51.375L 387.463,393.462z M 80.00,185.372c-12.497,0.00-22.628,10.13-22.628,22.628
		c0.00,12.497, 10.131,22.627, 22.628,22.627c 12.496,0.00, 22.627-10.13, 22.627-22.627C 102.627,195.502, 92.496,185.372, 80.00,185.372z
		 M 240.971,336.029c-18.746-18.745-41.539-26.343-50.912-16.971c-9.373,9.373-1.775,32.167, 16.97,50.912
		c 18.745,18.745, 41.539,26.343, 50.913,16.97C 267.312,377.568, 259.716,354.774, 240.971,336.029z"  />
<glyph unicode="&#xe05d;" d="M 368.01,162.02C 378.193,180.385, 384.00,201.513, 384.00,224.00c0.00,51.657-30.604,96.162-74.667,116.386
	C 325.695,355.035, 336.00,376.311, 336.00,400.00c0.00,44.183-35.817,80.00-80.00,80.00c-44.183,0.00-80.00-35.817-80.00-80.00c0.00-23.69, 10.305-44.965, 26.667-59.614
	C 158.604,320.162, 128.00,275.657, 128.00,224.00c0.00-22.487, 5.806-43.615, 15.99-61.98C 77.044,123.287, 32.00,50.906, 32.00-32.00l 448.00,0.00 
	C 480.00,50.906, 434.956,123.287, 368.01,162.02z"  />
<glyph unicode="&#xe05e;" d="M 448.00,480.00L 512.00,480.00L 512.00,416.00L 448.00,416.00zM 448.00,352.00L 512.00,352.00L 512.00,288.00L 448.00,288.00zM 448.00,224.00L 512.00,224.00L 512.00,160.00L 448.00,160.00zM 448.00,96.00L 512.00,96.00L 512.00,32.00L 448.00,32.00zM 384.00,416.00L 448.00,416.00L 448.00,352.00L 384.00,352.00zM 384.00,288.00L 448.00,288.00L 448.00,224.00L 384.00,224.00zM 384.00,160.00L 448.00,160.00L 448.00,96.00L 384.00,96.00zM 384.00,32.00L 448.00,32.00L 448.00-32.00L 384.00-32.00zM 320.00,480.00L 384.00,480.00L 384.00,416.00L 320.00,416.00zM 320.00,352.00L 384.00,352.00L 384.00,288.00L 320.00,288.00zM 320.00,224.00L 384.00,224.00L 384.00,160.00L 320.00,160.00zM 320.00,96.00L 384.00,96.00L 384.00,32.00L 320.00,32.00zM 256.00,416.00L 320.00,416.00L 320.00,352.00L 256.00,352.00zM 256.00,288.00L 320.00,288.00L 320.00,224.00L 256.00,224.00zM 256.00,160.00L 320.00,160.00L 320.00,96.00L 256.00,96.00zM 256.00,32.00L 320.00,32.00L 320.00-32.00L 256.00-32.00zM 192.00,480.00L 256.00,480.00L 256.00,416.00L 192.00,416.00zM 192.00,352.00L 256.00,352.00L 256.00,288.00L 192.00,288.00zM 192.00,224.00L 256.00,224.00L 256.00,160.00L 192.00,160.00zM 192.00,96.00L 256.00,96.00L 256.00,32.00L 192.00,32.00zM 128.00,416.00L 192.00,416.00L 192.00,352.00L 128.00,352.00zM 128.00,288.00L 192.00,288.00L 192.00,224.00L 128.00,224.00zM 128.00,160.00L 192.00,160.00L 192.00,96.00L 128.00,96.00zM 128.00,32.00L 192.00,32.00L 192.00-32.00L 128.00-32.00zM 64.00,480.00L 128.00,480.00L 128.00,416.00L 64.00,416.00zM 64.00,352.00L 128.00,352.00L 128.00,288.00L 64.00,288.00zM 64.00,224.00L 128.00,224.00L 128.00,160.00L 64.00,160.00zM 64.00,96.00L 128.00,96.00L 128.00,32.00L 64.00,32.00zM0.00,416.00L 64.00,416.00L 64.00,352.00L0.00,352.00zM0.00,288.00L 64.00,288.00L 64.00,224.00L0.00,224.00zM0.00,160.00L 64.00,160.00L 64.00,96.00L0.00,96.00zM0.00,32.00L 64.00,32.00L 64.00-32.00L0.00-32.00z"  />
<glyph unicode="&#xe05f;" d="M 512.00,265.372c0.00,100.463-29.396,181.969-65.741,182.613c 0.146,0.003, 0.289,0.015, 0.436,0.015l-41.471,0.00 
	c0.00,0.00-97.40-73.168-237.615-101.877c-4.28-22.646-7.015-49.637-7.015-80.751c0.00-31.114, 2.733-58.104, 7.015-80.75
	c 140.214-28.709, 237.615-101.878, 237.615-101.878l 41.471,0.00 c-0.146,0.00-0.289,0.012-0.436,0.016C 482.607,83.404, 512.00,164.909, 512.00,265.372
	z M 432.412,110.374c-4.691,0.00-9.766,4.871-12.373,7.774c-6.315,7.032-12.396,17.98-17.594,31.664
	c-11.628,30.616-18.033,71.655-18.033,115.562c0.00,43.905, 6.405,84.945, 18.033,115.561c 5.197,13.684, 11.281,24.633, 17.594,31.664
	c 2.607,2.906, 7.682,7.776, 12.373,7.776c 4.69,0.00, 9.768-4.872, 12.372-7.776c 6.317-7.032, 12.398-17.979, 17.594-31.664
	c 11.629-30.615, 18.034-71.656, 18.034-115.561c0.00-43.902-6.405-84.944-18.034-115.562c-5.195-13.684-11.281-24.632-17.594-31.664
	C 442.18,115.245, 437.104,110.374, 432.412,110.374z M 125.906,265.372c0.00,25.975, 1.905,51.215, 5.526,74.547
	c-23.686-3.277-44.471-5.162-70.17-5.162c-33.529,0.00-33.529,0.00-33.529,0.00L0.00,287.414l0.00-44.085 l 27.73-47.343c0.00,0.00,0.00,0.00, 33.53,0.00
	c 25.699,0.00, 46.484-1.887, 70.17-5.162C 127.812,214.156, 125.906,239.397, 125.906,265.372z M 184.075,158.914l-63.999,12.255
	l 40.921-160.772c 2.118-8.317, 10.372-12.519, 18.343-9.327l 59.278,23.726c 7.972,3.188, 11.164,11.982, 7.098,19.542L 184.075,158.914zM 432.412,205.635c-1.809,0.00-3.764,1.877-4.769,2.996c-2.435,2.71-4.778,6.93-6.781,12.204
	c-4.481,11.80-6.95,27.617-6.95,44.539c0.00,16.922, 2.469,32.739, 6.95,44.539c 2.003,5.274, 4.348,9.494, 6.781,12.204
	c 1.005,1.12, 2.96,2.997, 4.769,2.997c 1.808,0.00, 3.765-1.878, 4.769-2.997c 2.435-2.71, 4.778-6.929, 6.78-12.204
	c 4.482-11.799, 6.951-27.617, 6.951-44.539c0.00-16.921-2.469-32.739-6.951-44.539c-2.002-5.274-4.348-9.494-6.78-12.204
	C 436.177,207.512, 434.221,205.635, 432.412,205.635z"  />
<glyph unicode="&#xe060;" d="M 64.00,288.00L0.00,288.00 l0.00-160.00 l 64.00,0.00 l0.00,32.00 l 64.009-18.289c-0.002-0.242-0.009-0.484-0.009-0.729L 128.00,96.00 c0.00-17.602, 14.399-32.00, 32.00-32.00l 64.00,0.00 
		c 17.60,0.00, 32.00,14.398, 32.00,32.00l0.00,9.143 l 160.00-45.715L 416.00,356.57 L 64.00,256.00L 64.00,288.00 z M 160.00,132.57l 63.928-18.265L 223.928,96.00 L 160.00,96.00 L 160.00,132.57 zM 448.00,365.714L 448.00,50.285L 512.00,32.00L 512.00,384.00 	z"  />
<glyph unicode="&#xe061;" d="M 448.00,384.00L 64.00,384.00 c-35.20,0.00-64.00-28.80-64.00-64.00l0.00-192.00 c0.00-35.20, 28.80-64.00, 64.00-64.00l 384.00,0.00 c 35.20,0.00, 64.00,28.80, 64.00,64.00L 512.00,320.00 C 512.00,355.20, 483.20,384.00, 448.00,384.00z
	 M 160.00,128.00l-32.00,0.00 L 64.00,234.667L 64.00,128.00 L 32.00,128.00 L 32.00,288.00 l 32.00,0.00 l 64.00-106.667L 128.00,288.00 l 32.00,0.00 L 160.00,128.00 z M 288.00,256.00l-64.00,0.00 l0.00-32.00 l 64.00,0.00 l0.00-32.00 l-64.00,0.00 l0.00-32.00 l 64.00,0.00 l0.00-31.999 L 192.00,128.00L 192.00,288.00 l 96.00,0.00 L 288.00,256.00 z
	 M 480.00,128.00l-47.999,0.00 L 400.00,192.00l-32.00-64.00l-48.00,0.00 L 320.00,288.00 l 32.00,0.00 l0.00-128.00 l 32.00,64.00l 32.001,0.00 L 448.00,160.002L 448.00,288.00 l 32.00,0.00 L 480.00,128.00 z"  />
<glyph unicode="&#xe062;" d="M 320.00,192.00 C 372.935,192.00 420.935,170.467 455.701,135.701 L 410.467,90.467 C 387.29,113.645 355.289,128.00 320.00,128.00 C 284.711,128.00 252.711,113.645 229.533,90.467 L 184.299,135.701 C 219.065,170.467 267.065,192.00 320.00,192.00 ZM 93.726,226.274 C 154.166,286.714 234.525,320.00 320.00,320.00 C 405.475,320.00 485.834,286.714 546.275,226.274 L 501.02,181.02 L 501.02,181.02 C 452.667,229.372 388.38,256.00 320.00,256.00 C 251.619,256.00 187.333,229.372 138.981,181.019 L 93.726,226.274 ZM 494.392,412.781 C 547.743,390.215 595.65,357.917 636.783,316.783 L 636.783,316.783 L 591.529,271.529 C 519.001,344.057 422.569,384.00 320.00,384.00 C 217.43,384.00 121.00,344.057 48.471,271.529 L 3.216,316.784 C 44.35,357.917 92.257,390.215 145.608,412.781 C 200.86,436.15 259.534,448.00 320.00,448.00 C 380.466,448.00 439.139,436.15 494.392,412.781 ZM 288.00,32.00A32.00,32.00 2700.00 1 0 352.00,32A32.00,32.00 2700.00 1 0 288.00,32z" horiz-adv-x="640"  />
<glyph unicode="&#xe063;" d="M 288.00,32.00A32.00,32.00 2700.00 1 0 352.00,32A32.00,32.00 2700.00 1 0 288.00,32zM 320.00,384.00c 112.80,0.00, 216.385-34.658, 297.72-92.509C 546.826,387.098, 439.777,448.00, 320.00,448.00C 200.223,448.00, 93.175,387.098, 22.281,291.492
	C 103.616,349.342, 207.20,384.00, 320.00,384.00zM 320.00,256.00c 76.853,0.00, 147.895-20.56, 205.514-55.385C 479.462,272.936, 404.574,320.00, 320.00,320.00s-159.462-47.064-205.514-119.385
	C 172.105,235.44, 243.146,256.00, 320.00,256.00zM 320.00,128.00c 40.751,0.00, 79.405-5.262, 114.121-14.676C 411.059,160.413, 368.588,192.00, 320.00,192.00s-91.059-31.587-114.121-78.676
	C 240.595,122.738, 279.248,128.00, 320.00,128.00z" horiz-adv-x="640"  />
<glyph unicode="&#xe064;" d="M 512.00,224.00C 512.00,365.385, 397.385,480.00, 256.00,480.00S0.00,365.385,0.00,224.00c0.00-110.027, 69.418-203.832, 166.843-240.034L 160.00-32.00l 192.00,0.00 l-6.843,15.966
	C 442.582,20.168, 512.00,113.973, 512.00,224.00z M 243.395,162.587C 231.991,167.481, 224.00,178.805, 224.00,192.00c0.00,17.673, 14.327,32.00, 32.00,32.00
	c 17.673,0.00, 32.00-14.327, 32.00-32.00c0.00-13.195-7.989-24.522-19.393-29.417L 256.00,192.00L 243.395,162.587z M 269.134,161.354
	C 298.18,167.413, 320.00,193.155, 320.00,224.00c0.00,35.347-28.653,64.00-64.00,64.00c-35.346,0.00-64.00-28.653-64.00-64.00c0.00-30.846, 21.831-56.561, 50.88-62.614
	l-37.312-87.061C 159.953,93.90, 128.00,139.217, 128.00,192.00c0.00,70.692, 57.308,134.00, 128.00,134.00s 128.00-63.308, 128.00-134.00
	c0.00-52.783-31.953-98.10-77.568-117.675L 269.134,161.354z M 344.224-13.854l-36.962,86.243C 370.485,93.758, 416.00,153.562, 416.00,224.00
	c0.00,88.365-71.634,160.00-160.00,160.00c-88.365,0.00-160.00-71.635-160.00-160.00c0.00-70.438, 45.515-130.242, 108.738-151.611l-36.962-86.243
	C 87.979,20.39, 32.083,99.663, 32.083,192.00C 32.083,315.666, 132.334,421.917, 256.00,421.917c 123.666,0.00, 223.917-106.251, 223.917-229.917
	C 479.917,99.663, 424.021,20.39, 344.224-13.854z"  />
<glyph unicode="&#xe065;" d="M 320.00,320.00c0.00,35.346-28.653,64.00-64.00,64.00c-35.346,0.00-64.00-28.654-64.00-64.00c0.00-22.677, 11.804-42.583, 29.592-53.952L 140.306-32.00l 39.388,0.00 
		l 8.727,32.00l 135.158,0.00 l 8.728-32.00l 39.388,0.00 l-81.286,298.048C 308.196,277.417, 320.00,297.323, 320.00,320.00z M 297.397,96.00l-82.794,0.00 l 8.727,32.00l 65.34,0.00 
		L 297.397,96.00z M 232.058,160.00L 256.00,247.789L 279.942,160.00L 232.058,160.00 z M 197.148,32.00l 8.728,32.00l 100.249,0.00 l 8.727-32.00L 197.148,32.00 zM 332.174,460.737 C 382.10,433.658 416.00,380.788 416.00,320.00 C 416.00,259.212 382.10,206.342 332.174,179.263 C 354.207,214.326 368.00,264.398 368.00,320.00 C 368.00,375.602 354.207,425.674 332.174,460.737 ZM 428.174,460.737 C 478.10,433.658 512.00,380.788 512.00,320.00 C 512.00,259.212 478.10,206.342 428.174,179.263 C 450.207,214.326 464.00,264.398 464.00,320.00 C 464.00,375.602 450.207,425.674 428.174,460.737 ZM 179.826,179.263 C 129.90,206.343 96.00,259.212 96.00,320.00 C 96.00,380.788 129.90,433.657 179.826,460.737 C 157.792,425.674 144.00,375.602 144.00,320.00 C 144.00,264.398 157.792,214.326 179.826,179.263 ZM 0.00,320.00 C 0.00,380.788 33.90,433.657 83.826,460.737 C 61.792,425.674 48.00,375.602 48.00,320.00 C 48.00,264.398 61.792,214.326 83.826,179.263 C 33.90,206.343 0.00,259.212 0.00,320.00 Z"  />
<glyph unicode="&#xe066;" d="M 192.00,224.00A64.00,64.00 2700.00 1 0 320.00,224A64.00,64.00 2700.00 1 0 192.00,224zM 332.174,364.737 C 382.10,337.658 416.00,284.788 416.00,224.00 C 416.00,163.212 382.10,110.342 332.174,83.263 C 354.207,118.326 368.00,168.398 368.00,224.00 C 368.00,279.602 354.207,329.674 332.174,364.737 ZM 144.00,224.00 C 144.00,168.398 157.792,118.326 179.826,83.263 C 129.90,110.343 96.00,163.212 96.00,224.00 C 96.00,284.788 129.90,337.657 179.826,364.737 C 157.792,329.674 144.00,279.602 144.00,224.00 ZM 48.00,224.00 C 48.00,138.05 75.202,60.908 118.326,8.139 C 47.175,53.613 0.00,133.296 0.00,224.00 C 0.00,314.704 47.175,394.387 118.326,439.861 C 75.202,387.092 48.00,309.95 48.00,224.00 ZM 393.676,439.86 C 464.825,394.387 512.00,314.704 512.00,224.00 C 512.00,133.296 464.825,53.613 393.676,8.14 C 436.798,60.908 464.00,138.05 464.00,224.00 C 464.00,309.95 436.798,387.092 393.676,439.86 Z"  />
<glyph unicode="&#xe067;" d="M 224.00,96.00A32.00,32.00 12780.00 1 0 288.00,96A32.00,32.00 12780.00 1 0 224.00,96zM 256.00,416.00c-96.026,0.00-182.161-42.307-240.815-109.286l 24.081-21.071C 92.055,345.923, 169.577,384.00, 256.00,384.00
		c 86.423,0.00, 163.945-38.077, 216.734-98.357l 24.081,21.071C 438.161,373.693, 352.027,416.00, 256.00,416.00zM 256.00,320.00c-67.218,0.00-127.513-29.615-168.571-76.50l 24.082-21.071C 146.703,262.616, 198.385,288.00, 256.00,288.00
		c 57.616,0.00, 109.297-25.384, 144.489-65.571l 24.082,21.071C 383.513,290.385, 323.219,320.00, 256.00,320.00zM 256.00,224.00c-38.41,0.00-72.865-16.923-96.326-43.715l 24.082-21.071C 201.352,179.308, 227.192,192.00, 256.00,192.00
		c 28.808,0.00, 54.648-12.692, 72.245-32.786l 24.081,21.071C 328.865,207.077, 294.41,224.00, 256.00,224.00z"  />
<glyph unicode="&#xe068;" d="M 224.00,288.00L 96.00-32.00l 48.596,0.00 L 256.00,65.479L 367.406-32.00L 416.00-32.00 L 288.00,288.00L 224.00,288.00 z M 149.024,14.395l 42.871,107.179l 39.81-34.833
			L 149.024,14.395z M 362.978,14.396l-82.68,72.344l 39.809,34.833L 362.978,14.396z M 256.00,108.00l-51.507,45.068L 245.665,256.00l 20.67,0.00 
			l 41.173-102.932L 256.00,108.00zM 366.871,415.999C 377.764,397.172, 384.00,375.314, 384.00,352.00s-6.236-45.172-17.129-63.999l 27.72-16.00
			C 408.204,295.535, 416.00,322.856, 416.00,352.00s-7.796,56.465-21.409,79.999L 366.871,415.999zM 145.128,288.001C 134.238,306.828, 128.00,328.686, 128.00,352.00s 6.236,45.172, 17.128,63.999L 117.41,431.998
			C 103.796,408.464, 96.00,381.144, 96.00,352.00s 7.796-56.464, 21.41-79.999L 145.128,288.001zM 34.252,480.00C 12.47,442.345,0.00,398.629,0.00,352.00s 12.47-90.345, 34.252-127.999l 27.719,16.00C 42.911,272.948, 32.00,311.199, 32.00,352.00
			S 42.911,431.052, 61.971,464.00L 34.252,480.00zM 512.00,352.00c0.00,46.63-12.47,90.346-34.253,128.00l0.00,0.00L 450.03,464.00C 469.09,431.052, 480.00,392.801, 480.00,352.00s-10.91-79.053-29.971-112.00
			l 27.718-16.00l0.00,0.00C 499.531,261.654, 512.00,305.37, 512.00,352.00zM 224.00,352.00A32.00,32.00 12780.00 1 0 288.00,352A32.00,32.00 12780.00 1 0 224.00,352z"  />
<glyph unicode="&#xe069;" d="M 256.00,480.00C 114.615,480.00,0.00,365.385,0.00,224.00c0.00-70.691, 28.653-134.691, 74.98-181.019l 22.627,22.626C 57.072,106.145, 32.00,162.145, 32.00,224.00
			C 32.00,347.712, 132.288,448.00, 256.00,448.00s 224.00-100.288, 224.00-224.00c0.00-61.855-25.072-117.855-65.608-158.393l 22.628-22.626
			C 483.346,89.309, 512.00,153.309, 512.00,224.00C 512.00,365.385, 397.385,480.00, 256.00,480.00zM 256.00,480.00C 114.615,480.00,0.00,365.385,0.00,224.00c0.00-70.691, 28.653-134.691, 74.98-181.019l 22.627,22.626C 57.072,106.145, 32.00,162.145, 32.00,224.00
			C 32.00,347.712, 132.288,448.00, 256.00,448.00s 224.00-100.288, 224.00-224.00c0.00-61.855-25.072-117.855-65.608-158.393l 22.628-22.626
			C 483.346,89.309, 512.00,153.309, 512.00,224.00C 512.00,365.385, 397.385,480.00, 256.00,480.00L 256.00,480.00zM 256.00,384.00c-88.366,0.00-160.00-71.634-160.00-160.00c0.00-44.184, 17.909-84.184, 46.862-113.137l 22.639,22.638
			c-23.161,23.161-37.486,55.157-37.486,90.499c0.00,70.684, 57.301,127.985, 127.985,127.985c 70.684,0.00, 127.984-57.301, 127.984-127.985
			c0.00-35.342-14.325-67.338-37.486-90.499l 22.639-22.638C 398.092,139.816, 416.00,179.816, 416.00,224.00C 416.00,312.366, 344.365,384.00, 256.00,384.00zM 301.255,178.745C 312.837,190.327, 320.00,206.327, 320.00,224.00c0.00,35.346-28.654,64.00-64.00,64.00c-35.347,0.00-64.00-28.654-64.00-64.00
		c0.00-17.673, 7.164-33.673, 18.745-45.255l 22.627,22.627C 227.582,207.163, 224.00,215.163, 224.00,224.00c0.00,17.673, 14.327,32.00, 32.00,32.00
		s 32.00-14.327, 32.00-32.00c0.00-8.837-3.582-16.837-9.372-22.628L 301.255,178.745zM 244.00,192.00L 160.00-32.00L 352.00-32.00L 268.00,192.00 	z"  />
<glyph unicode="&#xe06a;" d="M 160.00-32.00l 192.00,0.00 l-64.00,64.00L 288.00,264.583 c 19.124,11.067, 32.00,31.732, 32.00,55.417c0.00,35.346-28.653,64.00-64.00,64.00c-35.346,0.00-64.00-28.654-64.00-64.00
		c0.00-23.685, 12.876-44.349, 32.00-55.417L 224.00,32.00 L 160.00-32.00zM 355.918,399.996C 373.486,378.082, 384.00,350.271, 384.00,320.00s-10.515-58.082-28.082-79.996l 24.979-19.999
		C 402.857,247.397, 416.00,282.161, 416.00,320.00s-13.144,72.603-35.103,99.995L 355.918,399.996zM 131.102,419.994C 109.143,392.602, 96.00,357.838, 96.00,320.00s 13.143-72.602, 35.102-99.994l 24.979,19.999
		C 138.515,261.918, 128.00,289.729, 128.00,320.00s 10.515,58.082, 28.082,79.995L 131.102,419.994zM 56.164,480.00C 21.03,436.172,0.00,380.551,0.00,320.009S 21.03,203.846, 56.164,160.02l 24.979,19.998
		C 50.401,218.367, 32.00,267.035, 32.00,320.009s 18.40,101.643, 49.143,139.992L 56.164,480.00zM 455.836,480.00l-24.979-19.999C 461.60,421.652, 480.00,372.983, 480.00,320.009s-18.40-101.644-49.144-139.992l 24.979-19.999
		C 490.971,203.846, 512.00,259.467, 512.00,320.009S 490.971,436.172, 455.836,480.00z"  />
<glyph unicode="&#xe06b;" d="M 256.00,96.00c 70.692,0.00, 128.00,57.308, 128.00,128.00l0.00,64.00 L 128.00,288.00 l0.00-64.00 C 128.00,153.308, 185.308,96.00, 256.00,96.00zM 448.00,320.00l-32.00,0.00 l0.00-96.00 c0.00-88.365-71.635-160.00-160.00-160.00S 96.00,135.635, 96.00,224.00l0.00,96.00 L 64.00,320.00 l-32.00-32.00l 32.00,0.00 l0.00-64.00 c0.00-95.134, 69.196-174.094, 160.00-189.33
		L 224.00,0.00 l-64.00-32.00l 192.00,0.00 l-64.00,32.00l0.00,34.67 c 90.804,15.236, 160.00,94.196, 160.00,189.33l0.00,64.00 l 32.00,0.00 L 448.00,320.00zM 384.00,352.00C 384.00,422.692, 326.693,480.00, 256.00,480.00S 128.00,422.692, 128.00,352.00l0.00-32.00 l 256.00,0.00 L 384.00,352.00 z"  />
<glyph unicode="&#xe06c;" d="M 420.00,256.00l0.00-64.00 c0.00-43.807-17.059-84.99-48.035-115.966C 340.99,45.059, 299.807,28.00, 256.00,28.00
		c-43.806,0.00-84.99,17.059-115.965,48.034C 109.06,107.01, 92.00,148.193, 92.00,192.00l0.00,64.00 L 64.00,256.00 l0.00-64.00 c0.00-95.135, 69.195-174.094, 160.00-189.33L 224.00,0.00 l-96.00,0.00 l0.00-32.00 
		l 256.00,0.00 l0.00,32.00 l-96.00,0.00 l0.00,2.67 c 90.804,15.236, 160.00,94.195, 160.00,189.33l0.00,64.00 L 420.00,256.00 zM 256.00,480.00c-70.692,0.00-128.00-57.308-128.00-128.00l0.00-160.00 c0.00-70.693, 57.308-128.00, 128.00-128.00c 70.692,0.00, 128.00,57.307, 128.00,128.00L 384.00,352.00 
		C 384.00,422.692, 326.692,480.00, 256.00,480.00z M 348.00,400.452c 3.314-6.269, 6.012-12.912, 8.00-19.852L 356.00,288.00 l-8.00,0.00 L 348.00,400.452 z M 332.00,422.912
		c 2.854-3.057, 5.526-6.286, 8.00-9.669L 340.00,288.00 l-8.00,0.00 L 332.00,422.912 z M 316.00,436.901c 2.77-1.962, 5.439-4.056, 8.00-6.273L 324.00,288.00 l-8.00,0.00 L 316.00,436.901 z M 300.00,446.219
		c 2.732-1.281, 5.402-2.674, 8.00-4.18L 308.00,288.00 l-8.00,0.00 L 300.00,446.219 z M 284.00,452.167c 2.713-0.759, 5.381-1.625, 8.00-2.594L 292.00,288.00 l-8.00,0.00 L 284.00,452.167 z M 268.00,455.304
		c 2.699-0.312, 5.367-0.726, 8.00-1.241L 276.00,288.00 l-8.00,0.00 L 268.00,455.304 z M 252.00,455.916c 1.328,0.051, 2.66,0.084, 4.00,0.084s 2.672-0.034, 4.00-0.084L 260.00,288.00 l-8.00,0.00 L 252.00,455.916 z
		 M 236.00,454.062c 2.633,0.515, 5.301,0.93, 8.00,1.241L 244.00,288.00 l-8.00,0.00 L 236.00,454.062 z M 220.00,449.573c 2.619,0.969, 5.287,1.834, 8.00,2.594L 228.00,288.00 l-8.00,0.00 L 220.00,449.573 z
		 M 204.00,442.039c 2.597,1.506, 5.268,2.898, 8.00,4.18L 212.00,288.00 l-8.00,0.00 L 204.00,442.039 z M 188.00,430.628c 2.561,2.217, 5.231,4.311, 8.00,6.273L 196.00,288.00 l-8.00,0.00 L 188.00,430.628 z
		 M 172.00,413.243c 2.474,3.383, 5.146,6.612, 8.00,9.669L 180.00,288.00 l-8.00,0.00 L 172.00,413.243 z M 156.00,380.60c 1.988,6.94, 4.686,13.583, 8.00,19.852L 164.00,288.00 l-8.00,0.00 L 156.00,380.60 z M 360.00,192.00
		c0.00-57.346-46.654-104.00-104.00-104.00s-104.00,46.654-104.00,104.00l0.00,64.00 l 208.00,0.00 L 360.00,192.00 z"  />
<glyph unicode="&#xe06d;" d="M 240.00,128.00c 44.183,0.00, 80.00,35.817, 80.00,80.00L 320.00,400.00 c0.00,44.183-35.817,80.00-80.00,80.00s-80.00-35.817-80.00-80.00l0.00-192.00 C 160.00,163.817, 195.818,128.00, 240.00,128.00zM 352.00,256.00l0.00-48.00 c0.00-61.855-50.145-112.00-112.00-112.00c-61.856,0.00-112.00,50.145-112.00,112.00l0.00,48.00 L 96.00,256.00 l0.00-48.00 c0.00-74.119, 56.002-135.15, 128.00-143.11L 224.00,0.00 
		l-64.00,0.00 l0.00-32.00 l 64.00,0.00 l 32.00,0.00 l 64.00,0.00 l0.00,32.00 l-64.00,0.00 l0.00,64.89 c 71.997,7.96, 128.00,68.991, 128.00,143.11l0.00,48.00 L 352.00,256.00 z"  />
<glyph unicode="&#xe06e;" d="M 320.00,400.00c0.00,44.183-35.816,80.00-80.00,80.00c-44.183,0.00-80.00-35.817-80.00-80.00l0.00-172.118 l 160.00,160.00L 320.00,400.00 zM 128.587,196.469C 128.20,200.26, 128.00,204.106, 128.00,208.00l0.00,48.00 L 96.00,256.00 l0.00-48.00 c0.00-13.45, 1.853-26.467, 5.302-38.816L 128.587,196.469zM 352.00,208.00c0.00-61.855-50.145-112.00-112.00-112.00c-33.313,0.00-63.215,14.557-83.729,37.644l 22.69,22.69
		C 193.629,139.01, 215.52,128.00, 240.00,128.00c 44.184,0.00, 80.00,35.816, 80.00,80.00l0.00,89.373 L 448.313,425.687l-22.627,22.627L 320.00,342.627l0.00,0.001 L 1.00,22.313
		l 22.627-22.627l 109.986,111.30c 22.954-25.155, 54.699-42.151, 90.387-46.097L 224.00,0.00 l-64.00,0.00 l0.00-32.00 l 64.00,0.00 l 32.00,0.00 l 64.00,0.00 l0.00,32.00 l-64.00,0.00 l0.00,64.89 
		c 71.997,7.96, 128.00,68.991, 128.00,143.11l0.00,48.00 l-32.00,0.00 L 352.00,208.00 z"  />
<glyph unicode="&#xe06f;" d="M 229.053,311.954L0.00,32.00c0.00-32.00, 32.00-64.00, 64.00-64.00l 279.954,229.054C 287.768,211.533, 243.533,255.768, 229.053,311.954zM 291.482,440.452C 269.502,417.469, 256.00,386.312, 256.00,352.00c0.00-70.692, 57.308-128.00, 128.00-128.00c 34.312,0.00, 65.469,13.502, 88.452,35.481
		C 380.441,275.873, 307.872,348.44, 291.482,440.452zM 416.00,416.00L 448.00,416.00L 448.00,384.00L 416.00,384.00zM 384.00,480.00c-23.014,0.00-44.606-6.078-63.268-16.71c 7.994-92.704, 81.854-166.564, 174.558-174.558
		C 505.922,307.393, 512.00,328.986, 512.00,352.00C 512.00,422.692, 454.693,480.00, 384.00,480.00z M 480.00,384.00l-32.00,0.00 l0.00-32.00 l 32.00,0.00 l0.00-32.00 l-32.00,0.00 l0.00,32.00 l-32.00,0.00 L 416.00,384.00 l-32.00,0.00 L 384.00,416.00 l-32.00,0.00 L 352.00,448.00 l 32.00,0.00 l0.00-32.00 l 32.00,0.00 L 416.00,448.00 
		l 32.00,0.00 l0.00-32.00 l 32.00,0.00 L 480.00,384.00 z"  />
<glyph unicode="&#xe070;" d="M 384.00,416.00c-49.179,0.00-94.03-18.498-128.00-48.905C 222.031,397.502, 177.179,416.00, 128.00,416.00S 33.969,397.502,0.00,367.096l0.00-8.596 l0.00-38.49 l0.00-192.004 
	L0.00,87.50 l0.00-6.576 c 0.342-0.306, 0.676-0.62, 1.02-0.924c 8.209-7.244, 17.04-13.798, 26.406-19.569c 9.43,7.631, 19.739,14.216, 30.761,19.569
	c 21.098,10.248, 44.783,16.00, 69.813,16.00s 48.716-5.752, 69.813-16.00c 11.021-5.354, 21.331-11.938, 30.761-19.569
	c 1.842-1.491, 3.65-3.022, 5.424-4.592c 8.108-7.178, 15.488-15.159, 22.002-23.83c 6.515,8.671, 13.894,16.652, 22.002,23.83
	c 1.773,1.569, 3.581,3.101, 5.424,4.592c 9.43,7.631, 19.739,14.216, 30.761,19.569c 21.098,10.248, 44.783,16.00, 69.813,16.00
	s 48.716-5.752, 69.813-16.00c 11.021-5.354, 21.331-11.938, 30.761-19.569c 9.366,5.771, 18.196,12.325, 26.405,19.569
	c 0.344,0.304, 0.679,0.618, 1.021,0.924L 512.00,87.50 l0.00,40.506 L 512.00,320.01 L 512.00,358.50 l0.00,8.596 C 478.031,397.502, 433.179,416.00, 384.00,416.00z M 128.00,128.00
	c-34.976,0.00-67.758-9.365-96.00-25.705L 32.00,352.007 C 58.741,372.095, 91.98,384.00, 128.00,384.00c 36.025,0.00, 69.258-11.919, 96.00-32.013l0.00-249.692 
	C 195.758,118.635, 162.976,128.00, 128.00,128.00z M 384.00,128.00c-34.976,0.00-67.758-9.365-96.00-25.705L 288.00,351.987 C 314.742,372.081, 347.976,384.00, 384.00,384.00
	c 36.021,0.00, 69.259-11.906, 96.00-31.994l0.00-249.712 C 451.758,118.635, 418.976,128.00, 384.00,128.00z"  />
<glyph unicode="&#xe071;" d="M 448.00,416.00l0.00-416.00 L 112.00,0.00 c-26.511,0.00-48.00,21.49-48.00,48.00c0.00,26.509, 21.489,48.00, 48.00,48.00l 304.00,0.00 L 416.00,480.00 L 96.00,480.00 C 60.801,480.00, 32.00,451.20, 32.00,416.00l0.00-384.00 
		c0.00-35.20, 28.801-64.00, 64.00-64.00l 384.00,0.00 L 480.00,416.00 L 448.00,416.00 zM 128.00,64.00L 416.00,64.00L 416.00,32.00L 128.00,32.00z"  />
<glyph unicode="&#xe072;" d="M 288.117,335.365L 409.473,376.081L 511.265,72.689L 389.909,31.973zM0.00,32.00l 128.00,0.00 L 128.00,384.00 L0.00,384.00 L0.00,32.00 z M 32.00,320.00l 64.00,0.00 l0.00-32.00 L 32.00,288.00 L 32.00,320.00 zM 160.00,32.00l 128.00,0.00 L 288.00,384.00 L 160.00,384.00 L 160.00,32.00 z M 192.00,320.00l 64.00,0.00 l0.00-32.00 l-64.00,0.00 L 192.00,320.00 z"  />
<glyph unicode="&#xe073;" d="M 176.00,400.00A80.00,80.00 10980.00 1 0 336.00,400A80.00,80.00 10980.00 1 0 176.00,400zM 504.988,115.99l-128.00,160.00c-6.315,7.894-15.606,11.997-24.984,12.004L 352.00,288.00L 160.00,288.00 l-0.004-0.007
		c-9.378-0.007-18.669-4.11-24.984-12.002l-128.00-160.00c-8.402-10.502-9.34-25.138-2.348-36.627
		c 5.881-9.663, 16.314-15.365, 27.329-15.365c 2.082,0.00, 4.186,0.204, 6.282,0.623L 128.00,82.566L 128.00-32.00 l 256.00,0.00 L 384.00,82.566 l 89.725-17.945
		c 2.097-0.419, 4.199-0.623, 6.281-0.623c 11.015,0.00, 21.449,5.703, 27.329,15.365C 514.328,90.852, 513.39,105.488, 504.988,115.99z
		 M 352.00,154.233l-25.725,5.146c-17.325,3.468-34.188-7.772-37.654-25.104c-3.466-17.33, 7.773-34.188, 25.104-37.654L 352.00,88.966L 352.00,64.00 
		l-96.00-32.00l-96.00,32.00l0.00,24.966 l 38.276,7.655c 17.33,3.466, 28.569,20.324, 25.103,37.654c-3.466,17.331-20.326,28.564-37.654,25.104
		L 160.00,154.233L 160.00,224.00 l 96.00-32.00l 96.00,32.00L 352.00,154.233 z"  />
<glyph unicode="&#xe074;" d="M 272.00,480.00L0.00,352.00L 544.00,352.00 	zM 128.50,288.00L 128.50,320.00L 32.50,320.00L 32.50,288.00L 64.50,288.00L 64.50,96.00L 32.50,96.00L 32.50,64.00L 128.50,64.00L 128.50,96.00L 96.50,96.00L 96.50,288.00 	zM 256.50,288.00L 256.50,320.00L 160.50,320.00L 160.50,288.00L 192.50,288.00L 192.50,96.00L 160.50,96.00L 160.50,64.00L 256.50,64.00L 256.50,96.00L 224.50,96.00L 224.50,288.00 	zM 384.50,288.00L 384.50,320.00L 288.50,320.00L 288.50,288.00L 320.50,288.00L 320.50,96.00L 288.50,96.00L 288.50,64.00L 384.50,64.00L 384.50,96.00L 352.50,96.00L 352.50,288.00 	zM 512.50,288.00L 512.50,320.00L 416.50,320.00L 416.50,288.00L 448.50,288.00L 448.50,96.00L 416.50,96.00L 416.50,64.00L 512.50,64.00L 512.50,96.00L 480.50,96.00L 480.50,288.00 	zM 32.50,32.00L 0.50-32.00L 544.00-32.00L 512.00,32.00 	z" horiz-adv-x="544"  />
<glyph unicode="&#xe075;" d="M 256.00,480.00L0.00,320.00l 512.00,0.00 L 256.00,480.00z M 400.00,288.00l 16.00-32.00l0.00-192.00 l 64.00,0.00 L 480.00,256.00 l 16.00,32.00L 400.00,288.00 z M 272.00,288.00l 16.00-32.00l0.00-192.00 l 64.00,0.00 L 352.00,256.00 l 16.00,32.00L 272.00,288.00 z M 144.00,288.00l 16.00-32.00l0.00-192.00 l 64.00,0.00 
	L 224.00,256.00 l 16.00,32.00L 144.00,288.00 z M 16.00,288.00l 16.00-32.00l0.00-192.00 l 64.00,0.00 L 96.00,256.00 l 16.00,32.00L 16.00,288.00 z M 16.00,32.00L0.00-32.00l 512.00,0.00 l-16.00,64.00L 16.00,32.00 z M 288.00,384.00c0.00-17.673-14.327-32.00-32.00-32.00
	c-17.673,0.00-32.00,14.327-32.00,32.00s 14.327,32.00, 32.00,32.00C 273.673,416.00, 288.00,401.673, 288.00,384.00z"  />
<glyph unicode="&#xe076;" d="M 96.00,186.334L 96.00,112.00 c0.00-32.00, 71.634-80.00, 160.00-80.00c 88.365,0.00, 160.00,48.00, 160.00,80.00l0.00,74.334 l-160.00-80.00L 96.00,186.334zM 256.00,416.00L0.00,288.00l 256.00-128.00l 207.714,103.857L 448.00,128.00l 32.00,0.00 L 480.00,272.00 l 32.00,16.00L 256.00,416.00z M 272.00,280.80c-12.813,0.00-23.20,10.387-23.20,23.20
		c0.00,12.813, 10.387,23.20, 23.20,23.20s 23.20-10.387, 23.20-23.20C 295.20,291.187, 284.814,280.80, 272.00,280.80z"  />
<glyph unicode="&#xe077;" d="M 432.00,480.00L 48.00,480.00 C 21.60,480.00,0.00,458.40,0.00,432.00l0.00-416.00 c0.00-26.40, 21.60-48.00, 48.00-48.00l 384.00,0.00 c 26.40,0.00, 48.00,21.60, 48.00,48.00L 480.00,432.00 C 480.00,458.40, 458.40,480.00, 432.00,480.00z M 416.00,32.00L 64.00,32.00 
		L 64.00,416.00 l 352.00,0.00 L 416.00,32.00 zM 128.00,256.00L 352.00,256.00L 352.00,224.00L 128.00,224.00zM 128.00,192.00L 352.00,192.00L 352.00,160.00L 128.00,160.00zM 128.00,128.00L 352.00,128.00L 352.00,96.00L 128.00,96.00zM 128.00,320.00L 352.00,320.00L 352.00,288.00L 128.00,288.00z"  />
<glyph unicode="&#xe078;" d="M 432.00,480.00L 48.00,480.00 C 21.60,480.00,0.00,458.40,0.00,432.00l0.00-416.00 c0.00-26.40, 21.60-48.00, 48.00-48.00l 384.00,0.00 c 26.40,0.00, 48.00,21.60, 48.00,48.00L 480.00,432.00 C 480.00,458.40, 458.40,480.00, 432.00,480.00z M 416.00,32.00L 64.00,32.00 
		L 64.00,416.00 l 352.00,0.00 L 416.00,32.00 zM 128.00,192.00L 352.00,192.00L 352.00,160.00L 128.00,160.00zM 128.00,128.00L 352.00,128.00L 352.00,96.00L 128.00,96.00zM 160.00,336.00A48.00,48.00 4860.00 1 0 256.00,336A48.00,48.00 4860.00 1 0 160.00,336zM 240.00,288.00l-64.00,0.00 c-26.40,0.00-48.00-14.40-48.00-32.00l0.00-32.00 l 160.00,0.00 l0.00,32.00 C 288.00,273.60, 266.40,288.00, 240.00,288.00z"  />
<glyph unicode="&#xe079;" d="M 446.059,385.941l-60.117,60.118C 367.273,464.727, 330.40,480.00, 304.00,480.00L 80.00,480.00 C 53.60,480.00, 32.00,458.40, 32.00,432.00l0.00-416.00 c0.00-26.40, 21.60-48.00, 48.00-48.00l 352.00,0.00 
	c 26.40,0.00, 48.00,21.60, 48.00,48.00L 480.00,304.00 C 480.00,330.40, 464.727,367.273, 446.059,385.941z M 416.00,32.00L 96.00,32.00 L 96.00,416.00 l 208.00,0.00 c 2.479,0.00, 8.507-1.034, 16.00-3.781L 320.00,320.00 l 92.22,0.00 
	c 2.746-7.493, 3.78-13.521, 3.78-16.00L 416.00,32.00 z"  />
<glyph unicode="&#xe07a;" d="M 446.059,385.941l-60.117,60.118C 367.273,464.727, 330.40,480.00, 304.00,480.00L 80.00,480.00 C 53.60,480.00, 32.00,458.40, 32.00,432.00l0.00-416.00 c0.00-26.40, 21.60-48.00, 48.00-48.00l 352.00,0.00 
	c 26.40,0.00, 48.00,21.60, 48.00,48.00L 480.00,304.00 C 480.00,330.40, 464.727,367.273, 446.059,385.941z M 320.00,412.219c 1.098-0.402, 2.226-0.84, 3.379-1.318
	c 9.03-3.741, 15.299-8.088, 17.308-10.097l 60.118-60.119c 2.009-2.009, 6.356-8.277, 10.097-17.307c 0.478-1.153, 0.916-2.281, 1.318-3.378
	L 320.00,320.00 L 320.00,412.219 z M 416.00,32.00L 96.00,32.00 L 96.00,416.00 l 192.00,0.00 l0.00-128.00 l 128.00,0.00 L 416.00,32.00 z"  />
<glyph unicode="&#xe07b;" d="M 446.059,385.941l-60.117,60.118C 367.273,464.727, 330.40,480.00, 304.00,480.00L 80.00,480.00 C 53.60,480.00, 32.00,458.40, 32.00,432.00l0.00-416.00 c0.00-26.40, 21.60-48.00, 48.00-48.00l 352.00,0.00 
	c 26.40,0.00, 48.00,21.60, 48.00,48.00L 480.00,304.00 C 480.00,330.40, 464.727,367.273, 446.059,385.941z M 320.00,412.219c 1.098-0.402, 2.226-0.84, 3.379-1.318
	c 9.03-3.741, 15.299-8.088, 17.308-10.097l 60.118-60.119c 2.009-2.009, 6.356-8.277, 10.097-17.307c 0.478-1.153, 0.916-2.281, 1.318-3.378
	L 320.00,320.00 L 320.00,412.219 z M 416.00,32.00L 96.00,32.00 L 96.00,416.00 l 192.00,0.00 l0.00-128.00 l 128.00,0.00 L 416.00,32.00 zM 128.00,224.00L 384.00,224.00L 384.00,192.00L 128.00,192.00zM 128.00,160.00L 384.00,160.00L 384.00,128.00L 128.00,128.00zM 128.00,96.00L 384.00,96.00L 384.00,64.00L 128.00,64.00z"  />
<glyph unicode="&#xe07c;" d="M 451.716,380.285 C 465.462,366.539 476.993,340.949 479.492,320.00 L 320.00,320.00 L 320.00,479.492 C 340.949,476.993 366.538,465.462 380.284,451.716 L 451.716,380.285 ZM 288.00,288.00 L 480.00,288.00 L 480.00,8.00 C 480.00-14.00 462.00-32.00 440.00-32.00 L 72.00-32.00 C 50.00-32.00 32.00-14.00 32.00,8.00 L 32.00,440.00 C 32.00,462.00 50.00,480.00 72.00,480.00 L 288.00,480.00 L 288.00,288.00 Z"  />
<glyph unicode="&#xe07d;" d="M 451.716,380.285c 13.746-13.746, 25.277-39.336, 27.776-60.285L 320.00,320.00 L 320.00,479.492 c 20.949-2.499, 46.538-14.03, 60.284-27.776
	L 451.716,380.285z M 288.00,288.00L 288.00,480.00 L 72.00,480.00 C 50.00,480.00, 32.00,462.00, 32.00,440.00l0.00-432.00 c0.00-22.00, 18.00-40.00, 40.00-40.00l 368.00,0.00 c 22.00,0.00, 40.00,18.00, 40.00,40.00L 480.00,288.00 L 288.00,288.00 z M 416.00,32.00L 96.00,32.00 l0.00,32.00 l 320.00,0.00 L 416.00,32.00 z
	 M 416.00,96.00L 96.00,96.00 l0.00,32.00 l 320.00,0.00 L 416.00,96.00 z M 416.00,160.00L 96.00,160.00 l0.00,32.00 l 320.00,0.00 L 416.00,160.00 z"  />
<glyph unicode="&#xe07e;" d="M 483.717,284.285 C 497.463,270.539 508.994,244.949 511.492,224.00 L 352.00,224.00 L 352.00,383.492 C 372.949,380.993 398.539,369.462 412.285,355.716 L 483.717,284.285 ZM 320.00,192.00 L 512.00,192.00 L 512.00,8.00 C 512.00-14.00 494.00-32.00 472.00-32.00 L 168.00-32.00 C 146.00-32.00 128.00-14.00 128.00,8.00 L 128.00,344.00 C 128.00,366.00 146.00,384.00 168.00,384.00 L 320.00,384.00 L 320.00,192.00 ZM 96.00,416.00 L 96.00,64.00 L 38.00,64.00 C 17.10,64.00 0.00,81.10 0.00,102.00 L 0.00,442.00 C 0.00,462.90 17.10,480.00 38.00,480.00 L 346.00,480.00 C 366.90,480.00 384.00,462.90 384.00,442.00 L 384.00,416.00 L 96.00,416.00 Z"  />
</font>
</defs>
</svg>
